Telecharger Unfriended [BLURAY 720p] French

(TRUEFRENCH = Vraie voix française)

Qualité BLURAY 720p | TRUEFRENCH | son DTS

Unfriended

Unfriended

Unfriended

Origine du film : Américain
Réalisateur : Levan Gabriadze
Acteurs : Shelley Hennig, Moses Jacob Storm, Renee Olstead
Genre : Epouvante-horreur
Durée : 1h23min
Date de sortie : 24 juin 2015
Année de production : 2014
Distribué par : Universal Pictures International France
Note presse : Unfriended 2,1/5
Note spectateurs : Unfriended

; »>2,4/5 (1 189)
Bande annonce :

c3ef4f8f1dd332df1bfe19a568e77d4f

19550660″>Cliquez-ici pour voir la bande annonce c3ef4f8f1dd332df1bfe19a568e77d4f »> 19550660

c3ef4f8f1dd332df1bfe19a568e77d4f

Unfriended

Une jeune lycéenne se suicide après qu’une vidéo compromettante sur elle ait été publiée sur Internet. Un an plus tard, six de ses amis se connectent, un soir, sur skype, pour « tchater » entre eux. Mais une septième personne, inconnue des autres, se connecte également. Cet intrus se montre très vite sous un visage inquiétant et menace les six amis de tuer le premier qui se déconnectera. Peu à peu, les événements tragiques qui ont marqué la bande, un an plus tôt, refont surface et se montrent sous un nouveau jour.
102075″ style= »display:inline; »>

Unfriended

Format : MKV

Unfriended

Unfriended.2014.TRUEFRENCH.720p.BluRay.x264.DTS-ShowFr

(4039 Mo)

[Liens Interchangeables entre hébergeurs: 4x 1000 Mo + 1x 39 Mo]

Uptobox
Télécharger

Uplea
Télécharger

1fichier
Télécharger

Uploaded
Télécharger

Rapidgator
Télécharger

TurboBit
Télécharger

1 Lien Premium – 3.9 Go

Uptobox Premium
Télécharger

Uplea Premium
Télécharger

1fichier Premium
Télécharger

Uploaded Premium
Télécharger

TurboBit Premium
Télécharger

NFO :

Afficher / Masquer le texte e315d53c6d4e068d1dde4ba8e5efd4f2″ class= »text_spoiler » style= »display:none; »>General
Unique ID : 326736718558482282105486801286850470318 (0xF5CF33F922C39464C610C1222930E1AE)
Complete name : Unfriended.2014.TRUEFRENCH.720p.BluRay.x264.DTS-ShowFr
Format : Matroska
Format version : Version 4 / Version 2
File size : 3.94 GiB
Duration : 1h 22mn
Overall bit rate : 6 832 Kbps
Encoded date : UTC 2015-10-23 15:17:35
Writing application : mkvmerge v8.3.0 (‘Over the Horizon’) 64bit
Writing library : libebml v1.3.1 + libmatroska v1.4.2
DURATION : 00:40:02.024000000
NUMBER_OF_FRAMES : 4
NUMBER_OF_BYTES : 92
_STATISTICS_WRITING_APP : mkvmerge v8.3.0 (‘Over the Horizon’) 64bit
_STATISTICS_WRITING_DATE_UT : 2015-10-23 15:17:35
_STATISTICS_TAGS : BPS DURATION NUMBER_OF_FRAMES NUMBER_OF_BYTES

Video
ID : 3
Format : AVC
Format/Info : Advanced Video Codec
Format profile : [email protected]
Format settings, CABAC : Yes
Format settings, ReFrames : 5 frames
Codec ID : V_MPEG4/ISO/AVC
Duration : 1h 22mn
Bit rate : 6 056 Kbps
Width : 1 280 pixels
Height : 720 pixels
Display aspect ratio : 16:9
Frame rate mode : Constant
Frame rate : 23.976 fps
Color space : YUV
Chroma subsampling : 4:2:0
Bit depth : 8 bits
Scan type : Progressive
Bits/(Pixel*Frame) : 0.274
Stream size : 3.42 GiB (87%)
Writing library : x264 core 146 r2538 121396c
Encoding settings : cabac=1 / ref=5 / deblock=1:0:0 / analyse=0x3:0x133 / me=umh / subme=7 / psy=1 / psy_rd=1.00:0.00 / mixed_ref=1 / me_range=16 / chroma_me=1 / trellis=1 / 8x8dct=1 / cqm=0 / deadzone=21,11 / fast_pskip=0 / chroma_qp_offset=-2 / threads=60 / lookahead_threads=5 / sliced_threads=0 / nr=0 / decimate=1 / interlaced=0 / bluray_compat=0 / constrained_intra=0 / bframes=3 / b_pyramid=2 / b_adapt=1 / b_bias=0 / direct=1 / weightb=1 / open_gop=0 / weightp=2 / keyint=250 / keyint_min=23 / scenecut=40 / intra_refresh=0 / rc_lookahead=40 / rc=2pass / mbtree=1 / bitrate=6056 / ratetol=1.0 / qcomp=0.60 / qpmin=0 / qpmax=69 / qpstep=4 / cplxblur=20.0 / qblur=0.5 / ip_ratio=1.40 / aq=1:1.00
Language : English
Default : Yes
Forced : No

Audio
ID : 1
Format : DTS
Format/Info : Digital Theater Systems
Mode : 16
Format settings, Endianness : Big
Codec ID : A_DTS
Duration : 1h 22mn
Bit rate mode : Constant
Bit rate : 768 Kbps
Channel(s) : 6 channels
Channel positions : Front: L C R, Side: L R, LFE
Sampling rate : 48.0 KHz
Bit depth : 24 bits
Compression mode : Lossy
Stream size : 454 MiB (11%)
Language : French
Default : Yes
Forced : No
DURATION : 01:22:38.962000000
NUMBER_OF_FRAMES : 118896
NUMBER_OF_BYTES : 3758360647
_STATISTICS_WRITING_APP : mkvmerge v8.3.0 (‘Over the Horizon’) 64bit
_STATISTICS_WRITING_DATE_UT : 2015-10-23 15:17:35
_STATISTICS_TAGS : BPS DURATION NUMBER_OF_FRAMES NUMBER_OF_BYTES

Text
ID : 2
Format : UTF-8
Codec ID : S_TEXT/UTF8
Codec ID/Info : UTF-8 Plain Text
Title : FR Forcé
Default : Yes
Forced : No

Menu
00:00:00.000 : en:00:00:00.000
00:02:09.296 : en:00:02:09.296
00:06:06.408 : en:00:06:06.408
00:09:17.265 : en:00:09:17.265
00:12:28.790 : en:00:12:28.790
00:19:09.065 : en:00:19:09.065
00:23:43.297 : en:00:23:43.297
00:28:12.941 : en:00:28:12.941
00:33:52.322 : en:00:33:52.322
00:37:11.271 : en:00:37:11.271
00:41:47.004 : en:00:41:47.004
00:44:32.837 : en:00:44:32.837
00:47:49.658 : en:00:47:49.658
00:52:40.699 : en:00:52:40.699
00:57:22.856 : en:00:57:22.856
01:01:00.407 : en:01:01:00.407
01:04:47.342 : en:01:04:47.342
01:08:56.966 : en:01:08:56.966
01:13:36.412 : en:01:13:36.412
01:16:40.387 : en:01:16:40.387