Télécharger Va, vis et deviens French

(TRUEFRENCH = Vraie voix française)

Qualité DVDRiP | TRUEFRENCH

Va, vis et deviens

Va, vis et deviens

Va, vis et deviens

Origine du film : Belge, italien, israélien, français
Réalisateur : Radu Mihaileanu
Acteurs : Yaël Abecassis, Roschdy Zem, Moshe Agazai
Genre : Drame
Durée : 2h20min
Date de sortie : 30 mars 2005
Année de production : 2005
Distribué par : Les Films du Losange
Note presse : Va, vis et deviens 4,0/5
Note spectateurs : Va, vis et deviens 4/5 (4 494)
Bande annonce :

0c29258ed6f78a5dd969965ae5fead70

18378009″>Cliquez-ici pour voir la bande annonce 0c29258ed6f78a5dd969965ae5fead70″> 18378009

0c29258ed6f78a5dd969965ae5fead70

Va, vis et deviens

En 1984, des milliers d'Africains de 26 pays frappés par la famine se retrouvent dans des camps au Soudan. A l'initiative d'Israël et des Etats-Unis, une vaste action est menée pour emmener des milliers de Juifs éthiopiens vers Israël.Une mère chrétienne pousse son fils de neuf ans à se déclarer juif pour le sauver de la famine et de la mort. L'enfant arrive en Terre Sainte. Déclaré orphelin, il est adopté par une famille française sépharade vivant à Tel-Aviv. Il grandit avec la peur que l'on découvre son double-secret et mensonge : ni juif, ni orphelin, seulement noir. Il découvrira l'amour, la culture occidentale, la judaïté mais également le racisme et la guerre dans les territoires occupés. 40934″ style= »display:inline; »>

Qualité : DVDRiP
Format : XviD
Langue : Français

Va, vis et deviens FRENCH DVDRip-NOTAG ( 700 Mo)

1fichier
Télécharger

Uptobox
Télécharger

Free
Upload en panne

Uploaded
Télécharger

Rapidgator
Télécharger

TurboBit
Télécharger

NFO :

Afficher / Masquer le texte 26f254737fcf2b8d9d3a60def2a93c26″ class= »text_spoiler » style= »display:none; »>General
Complete name : Va, vis et deviens.avi
Format : AVI
Format/Info : Audio Video Interleave
File size : 700 MiB
Duration : 2h 23mn
Overall bit rate : 684 Kbps

Video
ID : 0
Format : MPEG-4 Visual
Format profile : Advanced [email protected]
Format settings, BVOP : 1
Format settings, QPel : No
Format settings, GMC : No warppoints
Format settings, Matrix : Default (H.263)
Codec ID : XVID
Codec ID/Hint : XviD
Duration : 2h 23mn
Bit rate : 546 Kbps
Width : 576 pixels
Height : 256 pixels
Display aspect ratio : 2.25:1
Frame rate : 25.000 fps
Color space : YUV
Chroma subsampling : 4:2:0
Bit depth : 8 bits
Scan type : Progressive
Compression mode : Lossy
Bits/(Pixel*Frame) : 0.148
Stream size : 559 MiB (80%)
Writing library : XviD 1.0.3 (UTC 2004-12-20)

Audio
ID : 1
Format : MPEG Audio
Format version : Version 1
Format profile : Layer 3
Codec ID : 55
Codec ID/Hint : MP3
Duration : 2h 22mn
Bit rate mode : Constant
Bit rate : 128 Kbps
Channel(s) : 2 channels
Sampling rate : 48.0 KHz
Compression mode : Lossy
Stream size : 131 MiB (19%)
Alignment : Aligned on interleaves
Interleave, duration : 40 ms (1.00 video frame)
Interleave, preload duration : 504 ms
Writing library : LAME3.95
Encoding settings : -m s -V 4 -q 2 -lowpass 17.5 -b 128