Telecharger Very Bad Things [BLURAY 720p] French

Qualité BLURAY 720p | MULTiLANGUES

Very Bad Things

Very Bad Things

Very Bad Things

Origine du film : Américain
Réalisateur : Peter Berg
Acteurs : Jon Favreau, Leland Orser, Cameron Diaz
Genre : Comédie, Policier
Durée : 1h40min
Date de sortie : 17 février 1999
Année de production : 1998
Distribué par : SND
Note presse : Very Bad Things 2,9/5
Note spectateurs : Very Bad Things

; »>3,1/5 (2 753)
Bande annonce :

5a5b99af7c1db99d975d79591a9cb251

19354957″>Cliquez-ici pour voir la bande annonce 5a5b99af7c1db99d975d79591a9cb251″> 19354957

5a5b99af7c1db99d975d79591a9cb251

Very Bad Things

Quelques jours avant son mariage avec Laura, Kyle décide d’enterrer sa vie de garçon avec quelques copains, lesquels organisent une virée à Las Vegas. Laura voit d’un mauvais œil cette sortie, obsédée par un mariage qu’elle attend depuis toujours. La fête tourne au cauchemar quand Michael tue accidentellement une prostituée engagée pour animer la soirée. Entrainé par Boyd, le groupe d’amis décide de ne pas avertir la police et d’enterrer le cadavre dans le désert. C’est alors le début d’une spirale infernale.
102175″ style= »display:inline; »>

Very Bad Things

Format : MKV
Découpé avec : Winrar

Very Bad Things

Very.Bad.Things.1998.720p.MULTi.BluRay.x264-JRabbit

(6985 Mo)

[Liens Interchangeables entre hébergeurs: 6x 1000 Mo + 1x 985 Mo]

Uptobox
Télécharger

Uplea
Télécharger

1fichier
Télécharger

Uploaded
Télécharger

Rapidgator
Télécharger

TurboBit
Télécharger

[ Liens Premium ]

Uptobox
Télécharger

Uplea
Télécharger

1fichier
Télécharger

Uploaded
Télécharger

TurboBit
Télécharger

NFO :

Afficher / Masquer le texte 2e37d354d9c85e3e60d2ab1f2e45ee72″ class= »text_spoiler » style= »display:none; »>Very.Bad.Things.1998.720p.MULTi.BluRay.x264-JRabbit.zone-telechargement.com.mkv
Format : Matroska
Format version : Version 2
File size : 6.82 GiB
Duration : 1h 40mn
Overall bit rate : 9 739 Kbps
Writing application : HandBrake rev3736
Writing library : libmkv 0.6.4.1

Video
ID : 1
Format : AVC
Format/Info : Advanced Video Codec
Format profile : [email protected]
Format settings, CABAC : No
Format settings, ReFrames : 4 frames
Codec ID : V_MPEG4/ISO/AVC
Duration : 1h 40mn
Bit rate : 7 994 Kbps
Width : 1 280 pixels
Height : 688 pixels
Display aspect ratio : 1.85:1
Frame rate mode : Constant
Frame rate : 23.976 fps
Color space : YUV
Chroma subsampling : 4:2:0
Bit depth : 8 bits
Scan type : Progressive
Bits/(Pixel*Frame) : 0.379
Stream size : 5.47 GiB (80%)
Writing library : x264 core 112
Encoding settings : cabac=0 / ref=3 / deblock=1:0:0 / analyse=0x3:0x113 / me=hex / subme=7 / psy=1 / psy_rd=1,00:0,00 / mixed_ref=1 / me_range=16 / chroma_me=1 / trellis=1 / 8x8dct=1 / cqm=0 / deadzone=21,11 / fast_pskip=1 / chroma_qp_offset=-2 / threads=6 / sliced_threads=0 / nr=0 / decimate=1 / interlaced=0 / constrained_intra=0 / bframes=3 / b_pyramid=2 / b_adapt=1 / b_bias=0 / direct=1 / weightb=1 / open_gop=0 / weightp=2 / keyint=240 / keyint_min=23 / scenecut=40 / intra_refresh=0 / rc_lookahead=40 / rc=2pass / mbtree=1 / bitrate=7994 / ratetol=1,0 / qcomp=0,60 / qpmin=3 / qpmax=51 / qpstep=4 / cplxblur=20,0 / qblur=0,5 / ip_ratio=1,40 / aq=1:1,00
Language : English
Default : Yes
Forced : No
Color range : Limited
Color primaries : BT.709
Transfer characteristics : BT.709
Matrix coefficients : BT.709

Audio #1
ID : 2
Format : DTS
Format/Info : Digital Theater Systems
Mode : 16
Format settings, Endianness : Big
Codec ID : A_DTS
Duration : 1h 40mn
Bit rate mode : Constant
Bit rate : 1 510 Kbps
Channel(s) : 6 channels
Channel positions : Front: L C R, Side: L R, LFE
Sampling rate : 48.0 KHz
Bit depth : 24 bits
Compression mode : Lossy
Stream size : 1.06 GiB (16%)
Language : English
Default : Yes
Forced : No

Audio #2
ID : 3
Format : AC-3
Format/Info : Audio Coding 3
Mode extension : CM (complete main)
Format settings, Endianness : Big
Codec ID : A_AC3
Duration : 1h 40mn
Bit rate mode : Constant
Bit rate : 224 Kbps
Channel(s) : 2 channels
Channel positions : Front: L R
Sampling rate : 48.0 KHz
Compression mode : Lossy
Stream size : 161 MiB (2%)
Language : French
Default : No
Forced : No

Text #1
ID : 4
Format : UTF-8
Codec ID : S_TEXT/UTF8
Codec ID/Info : UTF-8 Plain Text
Language : French
Default : Yes
Forced : No

Text #2
ID : 5
Format : UTF-8
Codec ID : S_TEXT/UTF8
Codec ID/Info : UTF-8 Plain Text
Language : French
Default : No
Forced : No