Télécharger Very Bad Things French

Qualité DVDRiP | FRENCH

Very Bad Things

Very Bad Things

Very Bad Things

Origine du film : Américain
Réalisateur : Peter Berg
Acteurs : Jon Favreau, Leland Orser, Cameron Diaz
Genre : Comédie
Durée : 1h40min
Date de sortie : 17 février 1999
Année de production : 1998
Distribué par : SND
Note presse : Very Bad Things 2,9/5
Note spectateurs : Very Bad Things 3,1/5 (2 548)
Bande annonce :

216d7c77b3ccabc7fc6816dc82436d3e

19354957″>Cliquez-ici pour voir la bande annonce 216d7c77b3ccabc7fc6816dc82436d3e »> 19354957

216d7c77b3ccabc7fc6816dc82436d3e

Very Bad Things

Quelques jours avant son mariage avec Laura, Kyle décide d'enterrer sa vie de garçon avec quelques copains, lesquels organisent une virée à Las Vegas. Laura voit d'un mauvais œil cette sortie, obsédée par un mariage qu'elle attend depuis toujours. La fête tourne au cauchemar quand Michael tue accidentellement une prostituée engagée pour animer la soirée. Entrainé par Boyd, le groupe d'amis décide de ne pas avertir la police et d'enterrer le cadavre dans le dessert. C'est alors le début d'une spirale infernale. 39293″ style= »display:inline; »>

Very Bad Things

Qualité : DVDRiP
Format : XviD
Langue : Français

Very Bad Things

Very.Bad.Things.1998.FRENCH.DVDRiP.Xvid ( 700 Mo)

Uptobox
Télécharger

1fichier
Télécharger

Uploaded
Télécharger

Rapidgator
Télécharger

TurboBit
Télécharger

NFO :

Afficher / Masquer le texte 1ba43f9a601a47df389dcb46ab6629c6″ class= »text_spoiler » style= »display:none; »>General
Complete name : Very.Bad.Things.1998.FRENCH.DVDRiP.Xvid.avi
Format : AVI
Format/Info : Audio Video Interleave
File size : 703 MiB
Duration : 1h 36mn
Overall bit rate : 1 023 Kbps

Video
ID : 0
Format : MPEG-4 Visual
Format profile : Advanced [email protected]
Format settings, BVOP : 2
Format settings, QPel : No
Format settings, GMC : No warppoints
Format settings, Matrix : Default (MPEG)
Muxing mode : Packed bitstream
Codec ID : XVID
Codec ID/Hint : XviD
Duration : 1h 36mn
Bit rate : 882 Kbps
Width : 720 pixels
Height : 384 pixels
Display aspect ratio : 1.85:1
Frame rate : 25.000 fps
Color space : YUV
Chroma subsampling : 4:2:0
Bit depth : 8 bits
Scan type : Progressive
Compression mode : Lossy
Bits/(Pixel*Frame) : 0.128
Stream size : 606 MiB (86%)
Title : DVD4VIDEO
Writing library : XviD 1.1.2 (UTC 2006-11-01)

Audio
ID : 1
Format : MPEG Audio
Format version : Version 1
Format profile : Layer 3
Mode : Joint stereo
Mode extension : MS Stereo
Codec ID : 55
Codec ID/Hint : MP3
Duration : 1h 36mn
Bit rate mode : Constant
Bit rate : 128 Kbps
Channel(s) : 2 channels
Sampling rate : 48.0 KHz
Compression mode : Lossy
Stream size : 88.0 MiB (13%)
Alignment : Split accross interleaves
Interleave, duration : 24 ms (0.60 video frame)
Interleave, preload duration : 45 ms
Title : AC3

Jeux Gratuit
15354131_1854970838071206_1069261547_o.png