Télécharger Vice Versa Blu-Ray 3D

(TRUEFRENCH = Vraie voix française)

Qualité BLURAY 3D | TRUEFRENCH

Vice Versa

Vice Versa

Origine du film : Américain
Réalisateur : Pete Docter
Acteurs : Amy Poehler, Bill Hader, Mindy Kaling
Genre : Animation, Comédie, Famille
Durée : 1h35min
Date de sortie : 17 juin 2015
Année de production : 2015
Titre Original : Inside Out
Distribué par : The Walt Disney Company France
Note presse : Vice Versa 4,7/5
Note spectateurs : Vice Versa 4,4/5 (8 430)
Bande annonce :

5762fbac126c2ae47e7991785091a91f

19550127″>Cliquez-ici pour voir la bande annonce 5762fbac126c2ae47e7991785091a91f »> 19550127

5762fbac126c2ae47e7991785091a91f

Vice Versa

Le film est présenté hors-compétition au Festival de Cannes 2015Au Quartier Général, le centre de contrôle situé dans la tête de la petite Riley, 11 ans, cinq Émotions sont au travail. À leur tête, Joie, débordante d’optimisme et de bonne humeur, veille à ce que Riley soit heureuse. Peur se charge de la sécurité,  Colère s’assure que la justice règne, et Dégoût empêche Riley de se faire empoisonner la vie – au sens propre comme au figuré. Quant à Tristesse, elle n’est pas très sûre de son rôle. Les autres non plus, d’ailleurs… Lorsque la famille de Riley emménage dans une grande ville, avec tout ce que cela peut avoir d’effrayant, les Émotions ont fort à faire pour guider la jeune fille durant cette difficile transition. Mais quand Joie et Tristesse se perdent accidentellement dans les recoins les plus éloignés de l’esprit de Riley, emportant avec elles certains souvenirs essentiels, Peur, Colère et Dégoût sont bien obligés de prendre le relais. Joie et Tristesse vont devoir s’aventurer dans des endroits très inhabituels comme la Mémoire à long terme, le Pays de l’Imagination, la Pensée Abstraite, ou la Production des Rêves, pour tenter de retrouver le chemin du Quartier Général afin que Riley puisse passer ce cap et avancer dans la vie…
103283″ style= »display:inline; »>

Vice Versa

Format : MKV
Découpé avec : Winrar

Vice Versa

Vice.Versa.3D.2015.HSBS.TrueFrench.1080p.Bluray.X264.AC3.5.1.JKF-3D

(8487 Mo)

[Liens Interchangeables entre hébergeurs: 8x 1000 Mo + 1x 487 Mo]

Uptobox
Télécharger

Uplea
Télécharger

1fichier
Télécharger

Uploaded
Télécharger

Rapidgator
Télécharger

TurboBit
Télécharger

[Liens PREMIUM]

Uptobox
Télécharger

Uplea
Télécharger

1fichier
Télécharger

Uploaded
Partie 1
Partie 2

TurboBit
Télécharger

NFO :

Afficher / Masquer le texte 2a5584d60d7da10c8140f33bbcbfa8b6″ class= »text_spoiler » style= »display:none; »>General
Format : Matroska
Format version : Version 4 / Version 2
File size : 8.29 GiB
Duration : 1h 34mn
Overall bit rate mode : Variable
Overall bit rate : 12.5 Mbps
Encoded date : UTC 2015-10-29 05:54:21
Writing application : mkvmerge v8.1.0 (‘Psychedelic Postcard’) 64bit
Writing library : libebml v1.3.1 + libmatroska v1.4.2
DURATION : 01:34:49.760000000
NUMBER_OF_FRAMES : 177805
NUMBER_OF_BYTES : 364144640
_STATISTICS_WRITING_APP : mkvmerge v8.1.0 (‘Psychedelic Postcard’) 64bit
_STATISTICS_WRITING_DATE_UTC : 2015-10-29 05:54:21
_STATISTICS_TAGS : BPS DURATION NUMBER_OF_FRAMES NUMBER_OF_BYTES

Video
ID : 1
Format : AVC
Format/Info : Advanced Video Codec
Format profile : [email protected]
Format settings, CABAC : Yes
Format settings, ReFrames : 3 frames
Codec ID : V_MPEG4/ISO/AVC
Duration : 1h 34mn
Bit rate mode : Variable
Bit rate : 12.0 Mbps
Maximum bit rate : 40.0 Mbps
Width : 1 920 pixels
Height : 1 080 pixels
Display aspect ratio : 16:9
Frame rate mode : Constant
Frame rate : 23.976 fps
Color space : YUV
Chroma subsampling : 4:2:0
Bit depth : 8 bits
Scan type : Progressive
Bits/(Pixel*Frame) : 0.241
Stream size : 7.78 GiB (94%)
Writing library : x264 core 148 r2638+1 dc9664e
Encoding settings : cabac=1 / ref=4 / deblock=1:-1:-1 / analyse=0x3:0x133 / me=tesa / subme=11 / psy=1 / psy_rd=1.00:0.15 / mixed_ref=1 / me_range=24 / chroma_me=1 / trellis=2 / 8x8dct=1 / cqm=0 / deadzone=21,11 / fast_pskip=0 / chroma_qp_offset=-3 / threads=12 / lookahead_threads=1 / sliced_threads=0 / slices=4 / nr=0 / decimate=1 / interlaced=0 / bluray_compat=1 / constrained_intra=0 / bframes=3 / b_pyramid=1 / b_adapt=2 / b_bias=0 / direct=3 / weightb=1 / open_gop=1 / weightp=1 / keyint=24 / keyint_min=1 / scenecut=40 / intra_refresh=0 / rc_lookahead=24 / rc=2pass / mbtree=1 / bitrate=12001 / ratetol=1.0 / qcomp=0.60 / qpmin=0 / qpmax=69 / qpstep=4 / cplxblur=20.0 / qblur=0.5 / vbv_maxrate=40000 / vbv_bufsize=30000 / nal_hrd=vbr / filler=0 / frame-packing=3 / ip_ratio=1.40 / aq=1:1.00
Default : Yes
Forced : No
Color primaries : BT.709
Transfer characteristics : BT.709
Matrix coefficients : BT.709

Audio
ID : 2
Format : AC-3
Format/Info : Audio Coding 3
Mode extension : CM (complete main)
Format settings, Endianness : Big
Codec ID : A_AC3
Duration : 1h 34mn
Bit rate mode : Constant
Bit rate : 512 Kbps
Channel(s) : 6 channels
Channel positions : Front: L C R, Side: L R, LFE
Sampling rate : 48.0 KHz
Bit depth : 16 bits
Compression mode : Lossy
Stream size : 347 MiB (4%)
Language : French
Default : Yes
Forced : No

Menu
00:00:00.000 : en:00:00:00.000
00:07:22.692 : en:00:07:22.692
00:11:36.779 : en:00:11:36.779
00:15:46.404 : en:00:15:46.404
00:20:02.243 : en:00:20:02.243
00:25:21.436 : en:00:25:21.436
00:26:47.064 : en:00:26:47.064
00:30:10.183 : en:00:30:10.183
00:34:45.792 : en:00:34:45.792
00:36:02.285 : en:00:36:02.285
00:37:45.305 : en:00:37:45.305
00:41:27.360 : en:00:41:27.360
00:43:35.613 : en:00:43:35.613
00:45:19.508 : en:00:45:19.508
00:46:51.851 : en:00:46:51.851
00:50:02.458 : en:00:50:02.458
00:51:34.341 : en:00:51:34.341
00:56:12.160 : en:00:56:12.160
01:00:03.683 : en:01:00:03.683
01:01:17.841 : en:01:01:17.841
01:03:50.368 : en:01:03:50.368
01:06:27.191 : en:01:06:27.191
01:11:15.771 : en:01:11:15.771
01:13:40.541 : en:01:13:40.541
01:15:38.659 : en:01:15:38.659
01:20:00.337 : en:01:20:00.337
01:23:57.198 : en:01:23:57.198
01:26:18.339 : en:01:26:18.339