Telecharger Victor Victoria [DVDRiP] French

Qualité DVDRiP mkv | MULTiLANGUES

Victor Victoria

Victor Victoria

Origine du film : Américain
Réalisateur : Blake Edwards
Acteurs : Julie Andrews, Robert Preston, James Garner
Genre : Comédie musicale, Comédie, Romance
Durée : 2h12min
Date de sortie : 13 octobre 1982
Année de production : 1982
Titre Original : Victor, Victoria
Note spectateurs : Victor Victoria

; »>3,8/5 (605)
Bande annonce :

8d5951fa869a75a016173805b5f13091

19446870″>Cliquez-ici pour voir la bande annonce 8d5951fa869a75a016173805b5f13091″> 19446870

8d5951fa869a75a016173805b5f13091

Victor Victoria

Victoria, a la superbe voix d’opéra, ne trouve pas d’emploi. Jusqu’au jour ou elle se transforme en Victor, comte polonais.
105246″ style= »display:inline; »>

Victor Victoria

Format : MKV

Victor Victoria

Victor Victoria 1982 MULTI.DVDRip.x264.AC3-HuSh

(1420 Mo)

Uptobox
Télécharger

Uploaded
Télécharger

TurboBit
Télécharger

Rapidgator
Télécharger

Uplea
Télécharger

1fichier
Télécharger

NFO :

Afficher / Masquer le texte 25a18b4fbd896e584f4c0655d18ffc38″ class= »text_spoiler » style= »display:none; »>Format : Matroska

Format version : Version 4 / Version 2

File size : 1.42 GiB

Duration : 2h 8mn

Overall bit rate : 1 582 Kbps

Movie name : Victor.Victoria.1982.MULTI.DVDRip.x264.AC3-HuSh

Encoded date : UTC 2014-06-19 09:14:42

Writing application : mkvmerge v7.0.0 (‘Where We Going’) 64bit built on Jun 9 2014 15:16:27

Writing library : libebml v1.3.0 + libmatroska v1.4.1

DURATION : 02:05:03.477000000

NUMBER_OF_FRAMES : 1037

NUMBER_OF_BYTES : 35324

_STATISTICS_WRITING_APP : mkvmerge v7.0.0 (‘Where We Going’) 64bit built on Jun 9 2014 15:16:27

_STATISTICS_WRITING_DATE_UT : 2014-06-19 09:14:42

_STATISTICS_TAGS : BPS DURATION NUMBER_OF_FRAMES NUMBER_OF_BYTES

Video

ID : 1

Format : AVC

Format/Info : Advanced Video Codec

Format profile : [email protected]

Format settings, CABAC : Yes

Format settings, ReFrames : 11 frames

Codec ID : V_MPEG4/ISO/AVC

Duration : 2h 8mn

Bit rate : 1 004 Kbps

Width : 716 pixels

Height : 432 pixels

Display aspect ratio : 2.35:1

Original display aspect rat : 2.35:1

Frame rate mode : Constant

Frame rate : 25.000 fps

Color space : YUV

Chroma subsampling : 4:2:0

Bit depth : 8 bits

Scan type : Progressive

Bits/(Pixel*Frame) : 0.130

Stream size : 894 MiB (62%)

Writing library : x264 core 142 r2431

Encoding settings : cabac=1 / ref=11 / deblock=1:-2:-2 / analyse=0x3:0x133 / me=umh / subme=10 / psy=1 / psy_rd=1.00:0.15 / mixed_ref=1 / me_range=32 / chroma_me=1 / trellis=2 / 8x8dct=1 / cqm=0 / deadzone=21,11 / fast_pskip=0 / chroma_qp_offset=-3 / threads=12 / lookahead_threads=2 / sliced_threads=0 / nr=0 / decimate=1 / interlaced=0 / bluray_compat=0 / constrained_intra=0 / bframes=8 / b_pyramid=2 / b_adapt=2 / b_bias=0 / direct=3 / weightb=1 / open_gop=0 / weightp=2 / keyint=250 / keyint_min=25 / scenecut=40 / intra_refresh=0 / rc_lookahead=60 / rc=2pass / mbtree=1 / bitrate=1004 / ratetol=1.0 / qcomp=0.60 / qpmin=10 / qpmax=69 / qpstep=4 / cplxblur=20.0 / qblur=0.5 / vbv_maxrate=17500 / vbv_bufsize=17500 / nal_hrd=none / filler=0 / ip_ratio=1.40 / aq=1:1.00

Default : Yes

Forced : No

Color range : Limited

Color primaries : BT.709

Transfer characteristics : BT.709

Matrix coefficients : BT.709

DURATION : 02:08:14.760000000

NUMBER_OF_FRAMES : 192369

NUMBER_OF_BYTES : 965711968

_STATISTICS_WRITING_APP : mkvmerge v7.0.0 (‘Where We Going’) 64bit built on Jun 9 2014 15:16:27

_STATISTICS_WRITING_DATE_UT : 2014-06-19 09:14:42

_STATISTICS_TAGS : BPS DURATION NUMBER_OF_FRAMES NUMBER_OF_BYTES

Audio #1

ID : 2

Format : AC-3

Format/Info : Audio Coding 3

Mode extension : CM (complete main)

Format settings, Endianness : Big

Codec ID : A_AC3

Duration : 2h 8mn

Bit rate mode : Constant

Bit rate : 192 Kbps

Channel(s) : 1 channel

Channel positions : Front: C

Sampling rate : 48.0 KHz

Compression mode : Lossy

Delay relative to video : -5ms

Stream size : 176 MiB (12%)

Title : AC3 1.0 @ 192 kbps

Language : French

Default : Yes

Forced : No

DURATION : 02:08:14.752000000

NUMBER_OF_FRAMES : 240461

NUMBER_OF_BYTES : 184674048

_STATISTICS_WRITING_APP : mkvmerge v7.0.0 (‘Where We Going’) 64bit built on Jun 9 2014 15:16:27

_STATISTICS_WRITING_DATE_UT : 2014-06-19 09:14:42

_STATISTICS_TAGS : BPS DURATION NUMBER_OF_FRAMES NUMBER_OF_BYTES

Audio #2

ID : 3

Format : AC-3

Format/Info : Audio Coding 3

Mode extension : CM (complete main)

Format settings, Endianness : Big

Codec ID : A_AC3

Duration : 2h 8mn

Bit rate mode : Constant

Bit rate : 384 Kbps

Channel(s) : 6 channels

Channel positions : Front: L C R, Side: L R, LFE

Sampling rate : 48.0 KHz

Compression mode : Lossy

Delay relative to video : -5ms

Stream size : 352 MiB (24%)

Title : AC3 5.1 @ 384 kbps

Language : English

Default : No

Forced : No

DURATION : 02:08:14.752000000

NUMBER_OF_FRAMES : 240461

NUMBER_OF_BYTES : 369348096

_STATISTICS_WRITING_APP : mkvmerge v7.0.0 (‘Where We Going’) 64bit built on Jun 9 2014 15:16:27

_STATISTICS_WRITING_DATE_UT : 2014-06-19 09:14:42

_STATISTICS_TAGS : BPS DURATION NUMBER_OF_FRAMES NUMBER_OF_BYTES

Text #1

ID : 4

Format : UTF-8

Codec ID : S_TEXT/UTF8

Codec ID/Info : UTF-8 Plain Text

Title : Team HuSh

Default : Yes

Forced : Yes

Text #2

ID : 5

Format : UTF-8

Codec ID : S_TEXT/UTF8

Codec ID/Info : UTF-8 Plain Text

Title : French

Language : French

Default : No

Forced : No