Telecharger Violet & Daisy [BLURAY 720p] French

BLURAY 720p | FRENCH

Violet & Daisy

Violet & Daisy

Violet & Daisy

Origine du film : Américain
Réalisateur : Geoffrey Fletcher
Acteurs : Saoirse Ronan, Alexis Bledel, James Gandolfini
Genre : Thriller, Action
Durée : 1h28min
Année de production : 2011
Bande annonce :

df1ccca6b9cb1e60f007630b93efd43d

19517722″>Cliquez-ici pour voir la bande annonce df1ccca6b9cb1e60f007630b93efd43d »> 19517722

df1ccca6b9cb1e60f007630b93efd43d

Violet & Daisy

Un duo de jeunes assassines accepte ce qui semble être une mission facile, lorsqu'un évènement inattendu chamboule leur plan. 44755″ style= »display:inline; »>

Qualité : BLURAY 720p
Format : MKV
Langue : Français
Sous-titre : Français
Nombre de fichiers : 4 Fichiers
Taille des fichiers : 1000 Mo 753 Mo

Ps: Les liens sont interchangeables, prenez une partie de chaque hébergeur pour télécharger plusieurs fichiers en même temps. smile

Violet.&.Daisy.2011.LiMiTED.FRENCH.BluRay.720p.AC3.x264 ( 3753 Mo)

1fichier
Télécharger

Uptobox
Télécharger

Uploaded
Télécharger

Rapidgator
Télécharger

TurboBit
Télécharger

1 Lien Premium – 3.66 Go

1fichier
Télécharger

Uptobox
Télécharger

Uploaded
Télécharger

TurboBit
Télécharger

NFO :

Afficher / Masquer le texte 4c2ec9ddd5656eb45017e5d205e80188″ class= »text_spoiler » style= »display:none; »>General
Unique ID : 240007497585882160046985280017504204078 (0xB48FC33CE30950E8993D70D6F998F52E)
Complete name : Violet.And.Daisy.2011.LiMiTED.FRENCH.BluRay.720p.AC3.x264.mkv
Format : Matroska
Format version : Version 4 / Version 2
File size : 3.67 GiB
Duration : 1h 27mn
Overall bit rate : 5 968 Kbps
Encoded date : UTC 2014-01-27 08:13:12
Writing application : mkvmerge v6.7.0 ('Back to the Ground') 64bit built on Jan 8 2014 15:10:52
Writing library : libebml v1.3.0 libmatroska v1.4.1

Video
ID : 1
Format : AVC
Format/Info : Advanced Video Codec
Format profile : [email protected]
Format settings, CABAC : Yes
Format settings, ReFrames : 11 frames
Codec ID : V_MPEG4/ISO/AVC
Duration : 1h 27mn
Bit rate : 5 584 Kbps
Width : 1 280 pixels
Height : 534 pixels
Display aspect ratio : 2.40:1
Frame rate mode : Constant
Frame rate : 23.976 fps
Color space : YUV
Chroma subsampling : 4:2:0
Bit depth : 8 bits
Scan type : Progressive
Bits/(Pixel*Frame) : 0.341
Stream size : 3.36 GiB (92%)
Title : Violet.And.Daisy.2011.LiMiTED.FRENCH.BluRay.720p.AC3.x264
Writing library : x264 core 138 r2356 a1d3d17
Encoding settings : cabac=1 / ref=11 / deblock=1:-3:-3 / analyse=0x3:0x113 / me=umh / subme=10 / psy=1 / psy_rd=1.00:0.05 / mixed_ref=1 / me_range=32 / chroma_me=1 / trellis=2 / 8x8dct=1 / cqm=0 / deadzone=21,11 / fast_pskip=0 / chroma_qp_offset=-2 / threads=18 / lookahead_threads=1 / sliced_threads=0 / nr=0 / decimate=1 / interlaced=0 / bluray_compat=0 / constrained_intra=0 / bframes=4 / b_pyramid=2 / b_adapt=2 / b_bias=0 / direct=3 / weightb=1 / open_gop=0 / weightp=2 / keyint=250 / keyint_min=23 / scenecut=40 / intra_refresh=0 / rc=2pass / mbtree=0 / bitrate=5584 / ratetol=1.0 / qcomp=0.70 / qpmin=0 / qpmax=69 / qpstep=4 / cplxblur=20.0 / qblur=0.5 / ip_ratio=1.40 / pb_ratio=1.30 / aq=2:1.00
Default : Yes
Forced : Yes

Audio
ID : 2
Format : AC-3
Format/Info : Audio Coding 3
Mode extension : CM (complete main)
Format settings, Endianness : Big
Codec ID : A_AC3
Duration : 1h 27mn
Bit rate mode : Constant
Bit rate : 384 Kbps
Channel(s) : 6 channels
Channel positions : Front: L C R, Side: L R, LFE
Sampling rate : 48.0 KHz
Bit depth : 16 bits
Compression mode : Lossy
Delay relative to video : 20ms
Stream size : 242 MiB (6%)
Title : AC3 5.1 @ 384 Kbps
Language : French
Default : Yes
Forced : Yes

Jeux Gratuit
15354131_1854970838071206_1069261547_o.png