Telecharger Voyage au centre de la Terre 2 : L'île mystérieuse [BLURAY 720p] French

(TRUEFRENCH = Vraie voix française)

BLURAY 720p | TRUEFRENCH

Voyage au centre de la Terre 2 : L'île mystérieuse

Voyage au centre de la Terre 2 : L'île mystérieuse

Voyage au centre de la Terre 2 : L'île mystérieuse

Origine du film : Américain
Réalisateur : Brad Peyton
Acteurs : Dwayne Johnson, Michael Caine, Josh Hutcherson
Genre : Aventure, Action, Fantastique
Durée : 1h 33min
Date de sortie : 15 février 2012
Année de production : 2011
Titre Original : Journey 2: The Mysterious Island
Distribué par : Warner Bros. France
Note presse : Voyage au centre de la Terre 2 : L'île mystérieuse 2,1/5
Note spectateurs : Voyage au centre de la Terre 2 : L'île mystérieuse 3,4/5 (1480)
Bande annonce :

8b995bcb667a5c0fc80cf2c7bf9092fd

19269838″>Cliquez-ici pour voir la bande annonce 8b995bcb667a5c0fc80cf2c7bf9092fd »> 19269838

8b995bcb667a5c0fc80cf2c7bf9092fd

Voyage au centre de la Terre 2 : L'île mystérieuse

Sean Anderson, 17 ans, reçoit un message de détresse codé en provenance d'une île mystérieuse dont personne n'a jamais entendu parler… Tout aussi impatient que Sean de savoir d'où vient ce message, Hank, son beau-père, décide de tenter l'aventure ! Ils mettent alors le cap sur le Pacifique Sud, puis sur une destination quasi inconnue, dont personne, ou presque, n'est revenu en vie… C'est une contrée d'une beauté stupéfiante, où vivent d'étranges et effrayantes créatures entre des volcans et des montagnes d'or. Une île qui n'a pas fini de dévoiler tous ses secrets. Accompagnés de Gabato, seul pilote d'hélicoptère prêt à s'embarquer dans l'aventure, et de sa fille Kailani, aussi ravissante qu'intrépide, ils partent à la recherche de cette terre lointaine : ils devront sauver le seul être humain qui y habite et fuir avant qu'un terrible volcan ne submerge l'île et n'enfouisse ses trésors à tout jamais…

Nom de la release : Journey.2.The.Mysterious.Island.2012.TRUEFRENCH.720p.BluRay.x264-FMS 12487″ style= »display:inline; »>

Qualité : BLURAY 720p
Format : XviD
Langue : Français
Sous-titre : Français
Nombre de fichiers : 5 Fichiers
Taille des fichiers : 1000 Mo 710 Mo Mo
Taille totale : 4710 Mo

[5 Liens Interchangeables : 4 x 1000 Mo 1 x 710 Mo]

Ps: Les liens sont interchangeables, prenez une partie de chaque hébergeur pour télécharger plusieurs fichiers en même temps. smile

1fichier
Télécharger

Uptobox
Télécharger

Free
Télécharger

Uploaded
Télécharger

Rapidgator
Télécharger

TurboBit
Télécharger

[1 Lien PREMIUM : 1 x 4.59 GB]

1fichier
Télécharger

Uptobox
Télécharger

Uploaded
Télécharger

TurboBit
Télécharger

NFO :

Afficher / Masquer le texte 91139c1778dba6bc250a467eb7119ed1″ class= »text_spoiler » style= »display:none; »>———————————–FMS—————————————–
General
Complete name : Journey.2.The.Mysterious.Island.2012.TRUEFRENCH.720p.BluRay.x264-FMS.mkv
Format : Matroska
Format version : Version 2
File size : 4.60 GiB
Duration : 1h 34mn
Overall bit rate : 6 993 Kbps
Movie name : FMS
Encoded date : UTC 2012-05-24 07:30:02
Writing application : mkvmerge v3.3.0 ('Language') built on Mar 24 2010 14:59:24
Writing library : libebml v0.8.0 libmatroska v0.9.0

Video
ID : 1
Format : AVC
Format/Info : Advanced Video Codec
Format profile : [email protected]
Format settings, CABAC : Yes
Format settings, ReFrames : 9 frames
Codec ID : V_MPEG4/ISO/AVC
Duration : 1h 34mn
Bit rate : 6 214 Kbps
Width : 1 280 pixels
Height : 720 pixels
Display aspect ratio : 16:9
Frame rate : 23.976 fps
Color space : YUV
Chroma subsampling : 4:2:0
Bit depth : 8 bits
Scan type : Progressive
Bits/(Pixel*Frame) : 0.281
Stream size : 4.09 GiB (89%)
Title : FMS
Writing library : x264 core 116 r2057 0ba8a9c
Encoding settings : cabac=1 / ref=9 / deblock=1:-3:-3 / analyse=0x3:0x133 / me=umh / subme=10 / psy=1 / psy_rd=1.00:0.00 / mixed_ref=1 / me_range=32 / chroma_me=1 / trellis=2 / 8x8dct=1 / cqm=0 / deadzone=21,11 / fast_pskip=0 / chroma_qp_offset=-2 / threads=18 / sliced_threads=0 / nr=0 / decimate=0 / interlaced=0 / bluray_compat=0 / constrained_intra=0 / bframes=7 / b_pyramid=2 / b_adapt=2 / b_bias=0 / direct=3 / weightb=1 / open_gop=0 / weightp=2 / keyint=250 / keyint_min=23 / scenecut=40 / intra_refresh=0 / rc_lookahead=40 / rc=crf / mbtree=0 / crf=17.0 / qcomp=0.65 / qpmin=0 / qpmax=40 / qpstep=4 / vbv_maxrate=50000 / vbv_bufsize=50000 / crf_max=0.0 / nal_hrd=none / ip_ratio=1.25 / pb_ratio=1.25 / aq=1:0.65
Language : English
Default : Yes
Forced : No

Audio
ID : 2
Format : AC-3
Format/Info : Audio Coding 3
Mode extension : CM (complete main)
Codec ID : A_AC3
Duration : 1h 34mn
Bit rate mode : Constant
Bit rate : 640 Kbps
Channel(s) : 6 channels
Channel positions : Front: L C R, Side: L R, LFE
Sampling rate : 48.0 KHz
Bit depth : 16 bits
Compression mode : Lossy
Stream size : 431 MiB (9%)
Title : TRUEFRENCH AC3 640 Kbps
Language : French
Default : Yes
Forced : No

Text #1
ID : 3
Format : UTF-8
Codec ID : S_TEXT/UTF8
Codec ID/Info : UTF-8 Plain Text
Title : Franτais Forced
Language : French
Default : Yes
Forced : No

Text #2
ID : 4
Format : UTF-8
Codec ID : S_TEXT/UTF8
Codec ID/Info : UTF-8 Plain Text
Title : Franτais
Language : French
Default : No
Forced : No

Menu
00:00:00.000 : en:00:00:00.000
00:10:52.402 : en:00:10:52.402
00:19:13.277 : en:00:19:13.277
00:30:06.805 : en:00:30:06.805
00:39:21.442 : en:00:39:21.442
00:49:58.662 : en:00:49:58.662
00:59:03.457 : en:00:59:03.457
01:09:11.773 : en:01:09:11.773
01:19:27.096 : en:01:19:27.096
01:26:03.492 : en:01:26:03.492
———————————–FMS—————————————–

Jeux Gratuit
15354131_1854970838071206_1069261547_o.png