Telecharger Welcome to the Jungle [BLURAY 720p] French

(TRUEFRENCH = Vraie voix française)

BLURAY 720p | MULTiLANGUES (Avec TRUEFRENCH)

Welcome to the Jungle

Welcome to the Jungle

Welcome to the Jungle

Origine du film : Américain, britannique
Réalisateur : Rob Meltzer
Acteurs : Jean-Claude Van Damme, Adam Brody, Megan Boone
Genre : Action, Comédie
Durée : 1h35min
Année de production : 2013
Bande annonce :

bcb162af55dc130972ebfed5987a0a4e

19540324″>Cliquez-ici pour voir la bande annonce bcb162af55dc130972ebfed5987a0a4e »> 19540324

bcb162af55dc130972ebfed5987a0a4e

Welcome to the Jungle

Lors d'une retraite de bureau sur une île tropicale, un groupe de travailleurs issu d'une firme de design est rattrapé par un groupe dangereux. 45392″ style= »display:inline; »>

Qualité : BLURAY 720p
Format : MKV
Sous-titre : Français
Nombre de fichiers : 5 Fichiers
Taille des fichiers : 1000 Mo 737 Mo

Ps: Les liens sont interchangeables, prenez une partie de chaque hébergeur pour télécharger plusieurs fichiers en même temps. smile

Welcome.To.The.Jungle.2013.LiMiTED.MULTi.TRUEFRENCH.720p.BluRay.DTS.AC3.x264 ( 4737 Mo)

1fichier
Télécharger

Uptobox
Télécharger

Uploaded
Télécharger

Rapidgator
Télécharger

TurboBit
Télécharger

1 Lien Premium – 4.63 Go

1fichier
Télécharger

Uptobox
Télécharger

Uploaded
Télécharger

TurboBit
Télécharger

NFO :

Afficher / Masquer le texte 0ab9638e708a05d6e91f4e84bba38d4c » class= »text_spoiler » style= »display:none; »>General
Unique ID : 236572714014433030957805667947122714515 (0xB1FA3F553F8EF3089BE8E7340BBEE793)
Complete name : Welcome.To.The Jungle.2013 LIMITED.MULTi.720p.BluRay.DTS.AC3.x264.mkv
Format : Matroska
Format version : Version 4 / Version 2
File size : 4.63 GiB
Duration : 1h 34mn
Overall bit rate : 7 028 Kbps
Encoded date : UTC 2014-02-01 09:35:33
Writing application : mkvmerge v6.7.0 ('Back to the Ground') 64bit built on Jan 8 2014 15:10:52
Writing library : libebml v1.3.0 libmatroska v1.4.1

Video
ID : 1
Format : AVC
Format/Info : Advanced Video Codec
Format profile : [email protected]
Format settings, CABAC : Yes
Format settings, ReFrames : 5 frames
Codec ID : V_MPEG4/ISO/AVC
Duration : 1h 34mn
Bit rate : 5 133 Kbps
Width : 1 280 pixels
Height : 536 pixels
Display aspect ratio : 2.40:1
Frame rate mode : Constant
Frame rate : 23.976 fps
Color space : YUV
Chroma subsampling : 4:2:0
Bit depth : 8 bits
Scan type : Progressive
Bits/(Pixel*Frame) : 0.312
Stream size : 3.29 GiB (71%)
Title : Welcome.To.The Jungle.2013 LIMITED.MULTi.720p.BluRay.DTS.AC3.x264
Writing library : x264 core 142 r2389 956c8d8
Encoding settings : cabac=1 / ref=5 / deblock=1:0:0 / analyse=0x3:0x133 / me=umh / subme=7 / psy=1 / psy_rd=1.00:0.00 / mixed_ref=1 / me_range=16 / chroma_me=1 / trellis=1 / 8x8dct=1 / cqm=0 / deadzone=21,11 / fast_pskip=0 / chroma_qp_offset=-2 / threads=6 / lookahead_threads=1 / sliced_threads=0 / nr=0 / decimate=1 / interlaced=0 / bluray_compat=0 / constrained_intra=0 / bframes=3 / b_pyramid=2 / b_adapt=2 / b_bias=0 / direct=3 / weightb=1 / open_gop=0 / weightp=2 / keyint=250 / keyint_min=23 / scenecut=40 / intra_refresh=0 / rc_lookahead=50 / rc=2pass / mbtree=1 / bitrate=5133 / ratetol=1.0 / qcomp=0.60 / qpmin=0 / qpmax=69 / qpstep=4 / cplxblur=20.0 / qblur=0.5 / ip_ratio=1.40 / aq=1:1.00
Default : Yes
Forced : Yes

Audio #1
ID : 2
Format : DTS
Format/Info : Digital Theater Systems
Mode : 16
Format settings, Endianness : Big
Codec ID : A_DTS
Duration : 1h 34mn
Bit rate mode : Constant
Bit rate : 1 509 Kbps
Channel(s) : 6 channels
Channel positions : Front: L C R, Side: L R, LFE
Sampling rate : 48.0 KHz
Bit depth : 24 bits
Compression mode : Lossy
Stream size : 1 017 MiB (21%)
Title : DTS 5.1 @ 1509 Kbps
Language : English
Default : No
Forced : No

Audio #2
ID : 3
Format : AC-3
Format/Info : Audio Coding 3
Mode extension : CM (complete main)
Format settings, Endianness : Big
Codec ID : A_AC3
Duration : 1h 34mn
Bit rate mode : Constant
Bit rate : 384 Kbps
Channel(s) : 6 channels
Channel positions : Front: L C R, Side: L R, LFE
Sampling rate : 48.0 KHz
Bit depth : 16 bits
Compression mode : Lossy
Stream size : 259 MiB (5%)
Title : AC3 5.1 @ 384 Kbps
Language : French
Default : Yes
Forced : No

Text #1
ID : 4
Format : UTF-8
Codec ID : S_TEXT/UTF8
Codec ID/Info : UTF-8 Plain Text
Title : Z2 Forced
Language : French
Default : Yes
Forced : No

Text #2
ID : 5
Format : UTF-8
Codec ID : S_TEXT/UTF8
Codec ID/Info : UTF-8 Plain Text
Title : Z2 Full
Language : French
Default : No