Telecharger Winnie l'ourson [BLURAY 720p] French

(TRUEFRENCH = Vraie voix française)

Qualité BLURAY 720p | TRUEFRENCH

Winnie l'ourson

Winnie l'ourson

Origine du film : Américain
Réalisateur : Stephen J. Anderson
Acteurs : Jim Cummings, Tom Kenny, Bud Luckey
Genre : Animation, Famille
Durée : 1h3min
Date de sortie : 13 avril 2011
Année de production : 2011
Titre Original : Winnie The Pooh
Distribué par : The Walt Disney Company France
Note presse : Winnie l'ourson 4,0/5
Note spectateurs : Winnie l'ourson

; »>3,2/5 (235)
Bande annonce :

aad8daf55d2ac2f1749b608162cede22

19174989″>Cliquez-ici pour voir la bande annonce aad8daf55d2ac2f1749b608162cede22″> 19174989

aad8daf55d2ac2f1749b608162cede22

Winnie l'ourson

Un nouveau jour se lève dans la Forêt des rêves bleus. Comme à l’habitude, Winnie l’ourson se réveille avec une faim de loup et s’aperçoit qu’il n’a plus de miel. Il part en chercher, mais cela va s’avérer plus compliqué que prévu. Il commence par être interrompu en cours de route par un concours pour trouver une nouvelle queue à Bourriquet. Poursuivant son chemin, Winnie trouve ensuite un mot de Jean-Christophe où il est écrit : « Je suis sorti. Des choses à faire. Je reviens bientôt ». Mais Maître Hibou interprète mal le message et raconte à tous que le jeune garçon a été enlevé par une créature mystérieuse. Winnie et ses amis se lancent alors dans une folle équipée pour le sortir des griffes d’un ravisseur imaginaire. Pour le petit ours qui ne rêvait que d’un peu de miel, cette journée va se révéler pleine de surprises.
90337″ style= »display:inline; »>

Winnie l'ourson

Format : MKV
Découpé avec : Winrar

Winnie l'ourson

Winnie.The.Pooh.2011.FRENCH.720p.BluRay.x264-FMS

(2095 Mo)

[Liens Interchangeables entre hébergeurs: 2x 1000 Mo + 1x 95 Mo]

Uptobox
Télécharger

Uploaded
Télécharger

TurboBit
Télécharger

Rapidgator
Télécharger

Uplea
Télécharger

1fichier
Télécharger

[Liens Premium ]

Uptobox
Télécharger

Uploaded
Télécharger

TurboBit
Télécharger

Uplea
Télécharger

1fichier
Télécharger

NFO :

Afficher / Masquer le texte b8cc497d3435d0f1f13edf17395fc030″ class= »text_spoiler » style= »display:none; »>

Format : Matroska
File size : 2.04 GiB
Duration : 1h 3mn
Overall bit rate : 4 642 Kbps
Encoded date : UTC 2011-10-30 07:34:36
Writing application : mkvmerge v4.9.1 (‘Ich will’) built on Jul 11 2011 23:53:15
Writing library : libebml v1.2.1 + libmatroska v1.1.1

Video
ID : 1
Format : AVC
Format/Info : Advanced Video Codec
Format profile : [email protected]
Format settings, CABAC : Yes
Format settings, ReFrames : 4 frames
Format settings, GOP : M=4, N=32
Muxing mode : Header stripping
Codec ID : V_MPEG4/ISO/AVC
Duration : 1h 3mn
Bit rate : 3 970 Kbps
Width : 1 280 pixels
Height : 720 pixels
Display aspect ratio : 16:9
Frame rate : 23.976 fps
Color space : YUV
Chroma subsampling : 4:2:0
Bit depth : 8 bits
Scan type : Progressive
Bits/(Pixel*Frame) : 0.180
Stream size : 1.72 GiB (84%)
Title : FMS
Writing library : x264 core 115 r1995 c1e60b9
Encoding settings : cabac=1 / ref=3 / deblock=1:0:0 / analyse=0x3:0x113 / me=hex / subme=7 / psy=1 / psy_rd=1.00:0.00 / mixed_ref=1 / me_range=16 / chroma_me=1 / trellis=1 / 8x8dct=1 / cqm=0 / deadzone=21,11 / fast_pskip=1 / chroma_qp_offset=-2 / threads=24 / sliced_threads=0 / nr=0 / decimate=1 / interlaced=0 / bluray_compat=0 / constrained_intra=0 / bframes=3 / b_pyramid=2 / b_adapt=1 / b_bias=0 / direct=1 / weightb=1 / open_gop=0 / weightp=2 / keyint=250 / keyint_min=23 / scenecut=40 / intra_refresh=0 / rc_lookahead=40 / rc=2pass / mbtree=1 / bitrate=3970 / ratetol=1.0 / qcomp=0.60 / qpmin=0 / qpmax=69 / qpstep=4 / cplxblur=20.0 / qblur=0.5 / ip_ratio=1.40 / aq=1:1.00

Audio
ID : 2
Format : AC-3
Format/Info : Audio Coding 3
Mode extension : CM (complete main)
Muxing mode : Header stripping
Codec ID : A_AC3
Duration : 1h 3mn
Bit rate mode : Constant
Bit rate : 640 Kbps
Channel(s) : 6 channels
Channel positions : Front: L C R, Side: L R, LFE
Sampling rate : 48.0 KHz
Bit depth : 16 bits
Stream size : 289 MiB (14%)
Title : Fran■ais
Language : French

Text #1
ID : 3
Format : PGS
Muxing mode : zlib
Codec ID : S_HDMV/PGS
Codec ID/Info : The same subtitle format used on BDs/HD-DVDs
Title : Anglais Complet
Language : English

Text #2
ID : 4
Format : PGS
Muxing mode : zlib
Codec ID : S_HDMV/PGS
Codec ID/Info : The same subtitle format used on BDs/HD-DVDs
Title : Fran■ais Complet
Language : French
———————————–FMS—————————————–

Jeux Gratuit
15354131_1854970838071206_1069261547_o.png