Telecharger Woochi, le magicien des temps modernes [VF] [Dvdrip]

Qualité BLURAY 720p | FRENCH

Woochi, le magicien des temps modernes

Woochi, le magicien des temps modernes

Origine du film : Sud-Coréen
Réalisateur : Dong-hun Choi
Acteurs : Yun-seok Kim, Su-jeong Lim, Kang Dong Won
Genre : Action, Aventure, Comédie
Durée : 2h16min
Année de production : 2009
Titre Original : Woochi : The Taoist Wizard
Note spectateurs : Woochi, le magicien des temps modernes

; »>2,7/5 (59)

Woochi, le magicien des temps modernes

Wooshi, un Taoïste indiscipliné et coureur de jupons des temps anciens, atterrit au 21ème siècle et sème la pagaille avec ses pouvoirs magiques.
101157″ style= »display:inline; »>

Woochi, le magicien des temps modernes

Format : MKV
Découpé avec : Winrar

Woochi, le magicien des temps modernes

Woochi Le Magicien Des Temps Modernes FRENCH 720p BluRay x264-NOTAG

(5661 Mo)

[Liens Interchangeables entre hébergeurs: 5x 1000 Mo + 1x 661 Mo]

Uptobox
Télécharger

Uplea
Télécharger

1fichier
Télécharger

Uploaded
Télécharger

Rapidgator
Télécharger

TurboBit
Télécharger

[ Liens Premium ]

Uptobox
Télécharger

Uplea
Télécharger

1fichier
Télécharger

Uploaded
Télécharger

TurboBit
Télécharger

NFO :

Afficher / Masquer le texte cf84b950e32f2f51b3f64176cf9eb526″ class= »text_spoiler » style= »display:none; »>Woochi Le Magicien Des Temps Modernes FRENCH 720p BluRay x264-NOTAG.zone-telechargement.com.mkv
Format : Matroska
Format version : Version 2
File size : 5.53 GiB
Duration : 2h 15mn
Overall bit rate : 5 847 Kbps
Encoded date : UTC 2011-03-14 14:43:04
Writing application : mkvmerge v4.3.0 (‘Escape from the Island’) built on Sep 5 2010 10:30:51
Writing library : libebml v1.0.0 + libmatroska v1.0.0

Video
ID : 1
Format : AVC
Format/Info : Advanced Video Codec
Format profile : [email protected]
Format settings, CABAC : Yes
Format settings, ReFrames : 12 frames
Muxing mode : Header stripping
Codec ID : V_MPEG4/ISO/AVC
Duration : 2h 15mn
Bit rate : 5 400 Kbps
Width : 1 280 pixels
Height : 546 pixels
Display aspect ratio : 2.35:1
Frame rate mode : Constant
Frame rate : 23.976 fps
Color space : YUV
Chroma subsampling : 4:2:0
Bit depth : 8 bits
Scan type : Progressive
Bits/(Pixel*Frame) : 0.322
Stream size : 5.00 GiB (90%)
Writing library : x264 core 107 r1772 c9dad9e
Encoding settings : cabac=1 / ref=12 / deblock=1:-3:-3 / analyse=0x3:0x113 / me=umh / subme=9 / psy=1 / psy_rd=1.10:0.15 / mixed_ref=1 / me_range=32 / chroma_me=1 / trellis=2 / 8x8dct=1 / cqm=0 / deadzone=21,11 / fast_pskip=0 / chroma_qp_offset=-2 / threads=6 / sliced_threads=0 / nr=0 / decimate=1 / interlaced=0 / constrained_intra=0 / bframes=5 / b_pyramid=2 / b_adapt=2 / b_bias=0 / direct=3 / weightb=1 / open_gop=0 / weightp=2 / keyint=250 / keyint_min=23 / scenecut=40 / intra_refresh=0 / rc_lookahead=60 / rc=2pass / mbtree=1 / bitrate=5400 / ratetol=1.0 / qcomp=0.60 / qpmin=10 / qpmax=51 / qpstep=4 / cplxblur=20.0 / qblur=0.5 / vbv_maxrate=40000 / vbv_bufsize=30000 / ip_ratio=1.40 / aq=1:0.80 / nal_hrd=none
Language : Korean
Default : Yes
Forced : Yes

Audio
ID : 2
Format : AC-3
Format/Info : Audio Coding 3
Mode extension : CM (complete main)
Format settings, Endianness : Big
Muxing mode : Header stripping
Codec ID : A_AC3
Duration : 2h 15mn
Bit rate mode : Constant
Bit rate : 448 Kbps
Channel(s) : 6 channels
Channel positions : Front: L C R, Side: L R, LFE
Sampling rate : 48.0 KHz
Compression mode : Lossy
Delay relative to video : 5ms
Stream size : 434 MiB (8%)
Language : French
Default : Yes
Forced : No