Telecharger World Trade Center [BLURAY 720p] French

Qualité BLURAY 720p | MULTiLANGUES

World Trade Center

World Trade Center

Origine du film : Américain
Réalisateur : Oliver Stone
Acteurs : Nicolas Cage, Tom Wright, Michael Peña
Genre : Drame, Historique
Durée : 2h10min
Date de sortie : 20 septembre 2006
Année de production : 2005
Distribué par : United International Pictures (UIP)
Note presse : World Trade Center 2,0/5
Note spectateurs : World Trade Center 2,2/5 (4 150)
Bande annonce :

13a3944076904c3c63284f52f452c6c1

18628662″>Cliquez-ici pour voir la bande annonce 13a3944076904c3c63284f52f452c6c1″> 18628662

13a3944076904c3c63284f52f452c6c1

World Trade Center

11 septembre 2001. Une chaleur étouffante règne dès le lever du jour dans les rues de New York. Will Jimeno, du Port Authority Police Department, se demande s’il ne va pas prendre un jour de congé pour s’adonner à la chasse à l’arc. Il choisit finalement de se rendre au travail et rejoint le sergent John McLoughlin, alors que celui-ci et ses collègues du PAPD commencent leur tournée quotidienne dans les rues de Manhattan. Une journée banale qui commence comme tant d’autres…Sitôt l’alerte donnée, cinq policiers, dont McLoughlin et Jimeno, se rendent au World Trade Center et s’introduisent dans les Tours jumelles. McLoughlin et Jimeno survivent par miracle à l’effondrement des gratte-ciel. Ils se retrouvent piégés sous plusieurs tonnes de béton, de charpentes métalliques tordues, de verre et de gravats…
102208″ style= »display:inline; »>

World Trade Center

Format : MKV
Découpé avec : Winrar

World Trade Center

World.Trade.Center.2006.MULTi.720p.BluRay.x264.AC3-GAIA

(6707 Mo)

[Liens Interchangeables entre hébergeurs: 6x 1000 Mo + 1x 707 Mo]

Uptobox
Télécharger

Uplea
Télécharger

1fichier
Télécharger

Uploaded
Télécharger

Rapidgator
Télécharger

TurboBit
Télécharger

[ Liens Premium ]

Uptobox
Télécharger

Uplea
Télécharger

1fichier
Télécharger

Uploaded
Télécharger

TurboBit
Télécharger

NFO :

Afficher / Masquer le texte 50366ad9278302679828929ef14eb961″ class= »text_spoiler » style= »display:none; »>World.Trade.Center.2006.MULTi.720p.BluRay.x264.AC3-GAIA.zone-telechargement.com.mkv
Format : Matroska
Format version : Version 1
File size : 6.55 GiB
Duration : 2h 9mn
Overall bit rate : 7 261 Kbps
Encoded date : UTC 2009-04-08 18:14:01
Writing application : mkvmerge v2.6.0 (‘Kelly watch the Stars’) built on Mar 24 2009 15:23:17
Writing library : libebml v0.7.7 + libmatroska v0.8.1

Video
ID : 1
Format : AVC
Format/Info : Advanced Video Codec
Format profile : [email protected]
Format settings, CABAC : Yes
Format settings, ReFrames : 9 frames
Codec ID : V_MPEG4/ISO/AVC
Duration : 2h 9mn
Bit rate : 5 989 Kbps
Width : 1 280 pixels
Height : 720 pixels
Display aspect ratio : 16:9
Frame rate mode : Constant
Frame rate : 23.976 fps
Color space : YUV
Chroma subsampling : 4:2:0
Bit depth : 8 bits
Scan type : Progressive
Bits/(Pixel*Frame) : 0.271
Stream size : 5.27 GiB (80%)
Title : x264 720p
Writing library : x264 core 67 r1136M 3f9ba82
Encoding settings : cabac=1 / ref=9 / deblock=1:-3:-3 / analyse=0x3:0x113 / me=umh / subme=9 / psy_rd=1.0:0.0 / mixed_ref=1 / me_range=24 / chroma_me=1 / trellis=2 / 8x8dct=1 / cqm=0 / deadzone=21,11 / chroma_qp_offset=-2 / threads=3 / nr=0 / decimate=1 / mbaff=0 / bframes=3 / b_pyramid=1 / b_adapt=2 / b_bias=0 / direct=3 / wpredb=1 / keyint=250 / keyint_min=25 / scenecut=40 / rc=2pass / bitrate=5989 / ratetol=1.0 / qcomp=0.60 / qpmin=10 / qpmax=51 / qpstep=4 / cplxblur=20.0 / qblur=0.5 / vbv_maxrate=50000 / vbv_bufsize=50000 / ip_ratio=1.40 / pb_ratio=1.30 / aq=1:1.00
Language : French
Default : Yes
Forced : No

Audio #1
ID : 2
Format : AC-3
Format/Info : Audio Coding 3
Mode extension : CM (complete main)
Format settings, Endianness : Big
Codec ID : A_AC3
Duration : 2h 9mn
Bit rate mode : Constant
Bit rate : 640 Kbps
Channel count : 6 channels
Channel positions : Front: L C R, Side: L R, LFE
Sampling rate : 48.0 KHz
Bit depth : 16 bits
Compression mode : Lossy
Stream size : 591 MiB (9%)
Title : AC3 5.1
Language : French
Default : Yes
Forced : No

Audio #2
ID : 3
Format : AC-3
Format/Info : Audio Coding 3
Mode extension : CM (complete main)
Format settings, Endianness : Big
Codec ID : A_AC3
Duration : 2h 9mn
Bit rate mode : Constant
Bit rate : 640 Kbps
Channel count : 6 channels
Channel positions : Front: L C R, Side: L R, LFE
Sampling rate : 48.0 KHz
Bit depth : 16 bits
Compression mode : Lossy
Stream size : 591 MiB (9%)
Title : AC3 5.1
Language : English
Default : No
Forced : No

Text
ID : 4
Format : UTF-8
Codec ID : S_TEXT/UTF8
Codec ID/Info : UTF-8 Plain Text
Title : Srt
Language : French
Default : No
Forced : No

Jeux Gratuit
15354131_1854970838071206_1069261547_o.png