Telecharger X-Men: Days of Future Past [BLURAY 720p] French

(TRUEFRENCH = Vraie voix française)

BLURAY 720p | TRUEFRENCH (VFi) | DTS

Ajout de la version ROGUE CUT
(Cliquez ici pour voir ce qui a été ajouté)

Afficher / Masquer le texte 4cf4793322fc2ed306e832887faeb8c7″ class= »text_spoiler » style= »display:none; »>The Rogue Cut, cette nouvelle version propose une quinzaine de minutes supplémentaires mettant en scène Anna Paquin, l’interprète de Malicia (Rogue en anglais). Dans la version cinéma, l’actrice, coupée au montage, faisait un bref caméo à la fin du film. Voilà l’occasion pour les fans de la première heure de découvrir des images exclusives du film mais également le making-of « Mutant VS Machine » et autres interviews et commentaires. Le tout comprenant près de deux heures de bonus. Vous pourrez également découvrir les premières images du nouveau film Les Quatre Fantastiques. (Source: Small Things)

X-Men: Days of Future Past

X-Men: Days of Future Past

X-Men: Days of Future Past

Origine du film : Américain, Britannique
Réalisateur : Bryan Singer
Acteurs : Hugh Jackman, James McAvoy, Michael Fassbender
Genre : Action, Science fiction
Durée : 2h12min & 2h28 version ROGUE CUT
Date de sortie : 21 mai 2014
Année de production : 2014
Distribué par : Twentieth Century Fox France
Note presse : X-Men: Days of Future Past 3,8/5
Note spectateurs : X-Men: Days of Future Past

; »>4,3/5 (12 089)
Bande annonce :

237ed74c4fa458d2ebdcdfa1dc7aa312

19545059″>Cliquez-ici pour voir la bande annonce 237ed74c4fa458d2ebdcdfa1dc7aa312″> 19545059

237ed74c4fa458d2ebdcdfa1dc7aa312

X-Men: Days of Future Past

Les X-Men envoient Wolverine dans le passé pour changer un événement historique majeur, qui pourrait impacter mondialement humains et mutants.
60011″ style= »display:inline; »>

X-Men: Days of Future Past

Qualité : BLURAY 720p
Format : MKV
Langue : Français
Sous-titre : Français
Nombre de fichiers : 6 Fichiers
Taille des fichiers : 1000 Mo + 593 Mo

X-Men: Days of Future Past

Ps: Les liens sont interchangeables, prenez une partie de chaque hébergeur pour télécharger plusieurs fichiers en même temps.

X-Men.Days.of.Future.Past.2014.ROGUE.CUT

.FRENCH.720p.BluRay.AC3.x264-BAGUETTEHD ( 5450 Mo)

Uptobox
Télécharger

Uplea
Télécharger

1fichier
Télécharger

Uploaded
Télécharger

Rapidgator
Télécharger

TurboBit
Télécharger

[ Télécharger le film en 1 lien Premium – 5,45 Go]

Uptobox.com Premium
Télécharger

Uplea Premium
Télécharger

1fichier.com
Télécharger

Uploaded Premium
Télécharger partie 1
Télécharger partie 2

TurboBit.net Premium
Télécharger

X-Men.Days.of.Future.Past.2014.FRENCH.720p.BluRay.x264-LOST ( 5593 Mo)

Uptobox
Télécharger

Uplea
Télécharger

1fichier
Télécharger

Uploaded
Télécharger

Rapidgator
Télécharger

TurboBit
Télécharger

1 Lien Premium – 5.5 Go

Uptobox Premium
Télécharger

Uplea Premium
Télécharger

1fichier Premium
Télécharger

Uploaded Premium
Télécharger

TurboBit Premium
Télécharger

NFO : X-Men.Days.of.Future.Past.2014.ROGUE.CUT.FRENCH.720p.BluRay.AC3.x264-BAGUETTEHD

Afficher / Masquer le texte ea4ba3f7cd774896fa57a6bb0e7e24ad » class= »text_spoiler » style= »display:none; »>
Format : Matroska
Format version : Version 2
File size : 5.46 GiB
Duration : 2h 28mn
Overall bit rate : 5 252 Kbps
Encoded date : UTC 2015-07-09 06:37:20
Writing application : mkvmerge v8.1.0 (‘Psychedelic Postcard’) 32bit
Writing library : libebml v1.3.1 + libmatroska v1.4.2
DURATION : 02:27:23.709000000
NUMBER_OF_FRAMES : 31
NUMBER_OF_BYTES : 781
_STATISTICS_WRITING_APP : mkvmerge v8.1.0 (‘Psychedelic Postcard’) 32bit
_STATISTICS_WRITING_DATE_UT : 2015-07-09 06:37:20
_STATISTICS_TAGS : BPS DURATION NUMBER_OF_FRAMES NUMBER_OF_BYTES

Video
ID : 1
Format : AVC
Format/Info : Advanced Video Codec
Format profile : [email protected]
Format settings, CABAC : Yes
Format settings, ReFrames : 5 frames
Codec ID : V_MPEG4/ISO/AVC
Duration : 2h 28mn
Bit rate : 4 802 Kbps
Width : 1 280 pixels
Height : 536 pixels
Display aspect ratio : 2.40:1
Frame rate mode : Constant
Frame rate : 23.976 fps
Color space : YUV
Chroma subsampling : 4:2:0
Bit depth : 8 bits
Scan type : Progressive
Bits/(Pixel*Frame) : 0.292
Stream size : 4.88 GiB (89%)
Writing library : x264 core 146 r2538 121396c
Encoding settings : cabac=1 / ref=5 / deblock=1:0:0 / analyse=0x3:0x113 / me=umh / subme=8 / psy=1 / psy_rd=1.00:0.00 / mixed_ref=1 / me_range=16 / chroma_me=1 / trellis=1 / 8x8dct=1 / cqm=0 / deadzone=21,11 / fast_pskip=1 / chroma_qp_offset=-2 / threads=12 / lookahead_threads=2 / sliced_threads=0 / nr=0 / decimate=1 / interlaced=0 / bluray_compat=0 / constrained_intra=0 / bframes=3 / b_pyramid=2 / b_adapt=2 / b_bias=0 / direct=3 / weightb=1 / open_gop=0 / weightp=2 / keyint=240 / keyint_min=23 / scenecut=40 / intra_refresh=0 / rc_lookahead=50 / rc=2pass / mbtree=1 / bitrate=4802 / ratetol=1.0 / qcomp=0.60 / qpmin=0 / qpmax=69 / qpstep=4 / cplxblur=20.0 / qblur=0.5 / vbv_maxrate=62500 / vbv_bufsize=78125 / nal_hrd=none / filler=0 / ip_ratio=1.40 / aq=1:1.00
Language : English
Default : Yes
Forced : No
DURATION : 02:28:45.709000000
NUMBER_OF_FRAMES : 214003
NUMBER_OF_BYTES : 5357646267
_STATISTICS_WRITING_APP : mkvmerge v8.1.0 (‘Psychedelic Postcard’) 32bit
_STATISTICS_WRITING_DATE_UT : 2015-07-09 06:37:20
_STATISTICS_TAGS : BPS DURATION NUMBER_OF_FRAMES NUMBER_OF_BYTES

Audio
ID : 2
Format : AC-3
Format/Info : Audio Coding 3
Mode extension : CM (complete main)
Format settings, Endianness : Big
Codec ID : A_AC3
Duration : 2h 28mn
Bit rate mode : Constant
Bit rate : 448 Kbps
Channel(s) : 6 channels
Channel positions : Front: L C R, Side: L R, LFE
Sampling rate : 48.0 KHz
Compression mode : Lossy
Stream size : 477 MiB (9%)
Language : French
Default : Yes
Forced : No

Text
ID : 3
Format : UTF-8
Codec ID : S_TEXT/UTF8
Codec ID/Info : UTF-8 Plain Text
Language : French
Default : Yes
Forced : Yes

NFO : X-Men.Days.of.Future.Past.2014.FRENCH.720p.BluRay.x264-LOST

Afficher / Masquer le texte fa1fbc423f0f9734e4830f3ca443fb19″ class= »text_spoiler » style= »display:none; »>
#### ####
### [ XXXXXXXXXXXXXXXXX ] RELEASE iNFOS [ XXXXXXXXXXXXXXXXX ] ###
## ##
## Release Date …………..: 02-10-2014 ##
# Video Codec ……………: x264 #
## Video Resolution ……….: 1280 x 536 ##
## Video Bitrate ………….: 5 173 Kbps ##
## Runtime ……………….: 02:11:35 ##
## Audio …………………: French DTS 754 Kbps ##
## Subs ………………….: French Forced ##
## ##
## Links : ##
## http://www.imdb.com/title/tt3758046/ ##
## http://www.imdb.com/title/tt3758046/ ##
## ##
## ## ## ##
## ### ### # # ### ### ##

Jeux Gratuit
15354131_1854970838071206_1069261547_o.png