Telecharger Xanadu [DVDRiP] French

Qualité DVDRiP | FRENCH

Xanadu

Xanadu

Origine du film : Américain
Réalisateur : Robert Greenwald
Acteurs : Olivia Newton-John, Gene Kelly, Michael Beck
Genre : Fantastique, Comédie musicale, Romance
Durée : 1h33min
Année de production : 1980
Note spectateurs : Xanadu

; »>2,8/5 (15)

Xanadu

Xanadu est à la fois un regard vers le futur et un tendre souvenir qui nous rappelle comment étaient les choses à la grande époque hollywoodienne. Les années 40 et 80 se sont données rendez-vous dans Xanadu, une histoire d’amour très particulière et la première grande comédie musicale à l’ancienne à utiliser la musique.
100297″ style= »display:inline; »>

Xanadu

Format : XviD

Xanadu

Xanadu 1980 FRENCH.DVDRiP.XviD.AC3-HuSh

(1370 Mo)

Uptobox
Télécharger

Uploaded
Télécharger

TurboBit
Télécharger

Rapidgator
Télécharger

Uplea
Télécharger

1fichier
Télécharger

NFO :

Afficher / Masquer le texte 653e72dc059dd10626becac790f544cd » class= »text_spoiler » style= »display:none; »>■General

Complete name : F:TorrentXanadu.1980.FRENCH.DVDRiP.XviD.AC3-HuShXanadu.1980.FRENCH.DVDRiP.XviD.AC3-HuSh.avi

Format : AVI

Format/Info : Audio Video Interleave

File size : 1.37 GiB

Duration : 1h 36mn

Overall bit rate : 2 040 Kbps

Writing application : VirtualDubMod 1.5.4.1 (build 2178/release)

Writing library : VirtualDubMod build 2178/release

Video

ID : 0

Format : MPEG-4 Visual

Format profile : Advanced [email protected]

Format settings, BVOP : 1

Format settings, QPel : No

Format settings, GMC : No warppoints

Format settings, Matrix : Default (H.263)

Muxing mode : Packed bitstream

Codec ID : XVID

Codec ID/Hint : XviD

Duration : 1h 36mn

Bit rate : 1 839 Kbps

Width : 624 pixels

Height : 336 pixels

Display aspect ratio : 1.85:1

Frame rate : 23.976 fps

Color space : YUV

Chroma subsampling : 4:2:0

Bit depth : 8 bits

Scan type : Progressive

Compression mode : Lossy

Bits/(Pixel*Frame) : 0.366

Stream size : 1.23 GiB (90%)

Writing library : XviD 64

Audio

ID : 1

Format : AC-3

Format/Info : Audio Coding 3

Format profile : Dolby Digital

Mode extension : CM (complete main)

Format settings, Endianness : Big

Codec ID : 2000

Duration : 1h 36mn

Bit rate mode : Constant

Bit rate : 192 Kbps

Channel(s) : 2 channels

Channel positions : Front: L R

Sampling rate : 48.0 KHz

Compression mode : Lossy

Stream size : 132 MiB (9%)

Alignment : Split accross interleaves

Interleave, duration : 42 ms (1.00 video frame)

Interleave, preload duratio : 500 ms

Jeux Gratuit
15354131_1854970838071206_1069261547_o.png