Telecharger Z For Zachariah [BLURAY 720p] French

(TRUEFRENCH = Vraie voix française)

Qualité BLURAY 720p | TRUEFRENCH

Origine du film : Américain
Réalisateur : Craig Zobel
Acteurs : Margot Robbie, Chiwetel Ejiofor, Chris Pine
Genre : Science fiction, Drame, Thriller
Durée : 1h35min
Année de production : 2015
Bande annonce :

d3abb74b16cd1287554326a4bd252b34

19554192″>Cliquez-ici pour voir la bande annonce d3abb74b16cd1287554326a4bd252b34″> 19554192

d3abb74b16cd1287554326a4bd252b34

Dans un monde post-apocalyptique, une jeune femme qui croit être le dernier humain sur la Terre rencontre un scientifique à la recherche de survivants. Leur relation devient fragile quand apparaît un autre survivant. Comme les deux hommes se disputent l’affection de cette femme, leurs pulsions primales commencent à révéler leur vraie nature.
101647″ style= »display:inline; »>

Format : MKV

Z.For.Zachariah.2015.FRENCH.720p.BluRay.x264.AC3-BUITONI

(3685 Mo)

[Liens Interchangeables entre hébergeurs: 3x 1000 Mo + 1x 685 Mo]

Uptobox
Télécharger

Uplea
Télécharger

1fichier
Télécharger

Uploaded
Télécharger

Rapidgator
Télécharger

TurboBit
Télécharger

1 Lien Premium – 3.6 Go

Uptobox Premium
Télécharger

Uplea Premium
Télécharger

1fichier Premium
Télécharger

Uploaded Premium
Télécharger

TurboBit Premium
Télécharger

NFO :

Afficher / Masquer le texte c66bb3802a5061a427b6904755a58c0e » class= »text_spoiler » style= »display:none; »>General
Unique ID : 11776774559041931121555299437501469027 (0x8DC1FD0A0AF378B63A818B31363D163)
Complete name : Z.For.Zachariah.2015.FRENCH.720p.BluRay.x264.AC3-BUITONI.mkv
Format : Matroska
Format version : Version 4 / Version 2
File size : 3.60 GiB
Duration : 1h 37mn
Overall bit rate : 5 263 Kbps
Encoded date : UTC 2015-10-20 12:28:00
Writing application : mkvmerge v8.5.0 (‘Vanishing Act’) 64bit
Writing library : libebml v1.3.1 + libmatroska v1.4.2

Video
ID : 1
Format : AVC
Format/Info : Advanced Video Codec
Format profile : [email protected]
Format settings, CABAC : Yes
Format settings, ReFrames : 5 frames
Codec ID : V_MPEG4/ISO/AVC
Duration : 1h 37mn
Bit rate : 4 880 Kbps
Width : 1 280 pixels
Height : 536 pixels
Display aspect ratio : 2.40:1
Frame rate mode : Constant
Frame rate : 23.976 fps
Color space : YUV
Chroma subsampling : 4:2:0
Bit depth : 8 bits
Scan type : Progressive
Bits/(Pixel*Frame) : 0.297
Stream size : 3.27 GiB (91%)
Writing library : x264 core 148 r2597 e86f3a1
Encoding settings : cabac=1 / ref=5 / deblock=1:0:0 / analyse=0x3:0x133 / me=umh / subme=7 / psy=1 / psy_rd=1.00:0.00 / mixed_ref=1 / me_range=16 / chroma_me=1 / trellis=1 / 8x8dct=1 / cqm=0 / deadzone=21,11 / fast_pskip=0 / chroma_qp_offset=-2 / threads=17 / lookahead_threads=2 / sliced_threads=0 / nr=0 / decimate=1 / interlaced=0 / bluray_compat=0 / constrained_intra=0 / bframes=3 / b_pyramid=2 / b_adapt=1 / b_bias=0 / direct=1 / weightb=1 / open_gop=0 / weightp=2 / keyint=250 / keyint_min=23 / scenecut=40 / intra_refresh=0 / rc_lookahead=40 / rc=2pass / mbtree=1 / bitrate=4880 / ratetol=1.0 / qcomp=0.60 / qpmin=0 / qpmax=69 / qpstep=4 / cplxblur=20.0 / qblur=0.5 / ip_ratio=1.40 / aq=1:1.00
Language : English
Default : Yes
Forced : No

Audio
ID : 2
Format : AC-3
Format/Info : Audio Coding 3
Mode extension : CM (complete main)
Format settings, Endianness : Big
Codec ID : A_AC3
Duration : 1h 37mn
Bit rate mode : Constant
Bit rate : 384 Kbps
Channel(s) : 6 channels
Channel positions : Front: L C R, Side: L R, LFE
Sampling rate : 48.0 KHz
Bit depth : 16 bits
Compression mode : Lossy
Stream size : 269 MiB (7%)
Language : French
Default : Yes
Forced : No

Menu
00:00:00.000 : :Chapitre 1
00:04:31.521 : :Chapitre 2
00:10:42.058 : :Chapitre 3
00:15:05.822 : :Chapitre 4
00:20:24.473 : :Chapitre 5
00:27:23.851 : :Chapitre 6
00:34:12.592 : :Chapitre 7
00:42:45.563 : :Chapitre 8
00:46:50.516 : :Chapitre 9
00:52:39.990 : :Chapitre 10
00:58:51.903 : :Chapitre 11
01:03:50.618 : :Chapitre 12
01:08:29.314 : :Chapitre 13
01:16:56.821 : :Chapitre 14
01:22:28.527 : :Chapitre 15
01:27:30.078 : :Chapitre 16

Jeux Gratuit
15354131_1854970838071206_1069261547_o.png