Telecharger Zack & Miri font un porno [BLURAY 720p] French

(TRUEFRENCH = Vraie voix française)

BLURAY 720p | MULTiLANGUES (Avec TRUEFRENCH) | DTS

Zack & Miri font un porno

Zack & Miri font un porno

Zack & Miri font un porno

Origine du film : Américain
Réalisateur : Kevin Smith
Acteurs : Seth Rogen, Elizabeth Banks, Jason Mewes
Genre : Comédie, Romance
Durée : 1h 42min
Année de production : 2008
Titre Original : Zack and Miri Make a Porno
Note spectateurs : Zack & Miri font un porno 2,7/5 (693)
Bande annonce :

4c2caee881bc5ba4fda51a443acbb908

19143134″>Cliquez-ici pour voir la bande annonce 4c2caee881bc5ba4fda51a443acbb908″> 19143134

4c2caee881bc5ba4fda51a443acbb908

Zack & Miri font un porno

Zack et Miri, deux jeunes adultes à l'amitié platonique décident de solliciter l'aide de quelques unes de leurs connaissances pour réaliser un film ponographique amateur, et empocher une certaine somme d'argent. Zack et Miri vont peu à peu se rendre compte que les sentiments qu'ils ont l'un pour l'autre sont peut être plus profonds qu'ils ne l'imaginaient…

Nom de la release : Zack.Et.Miri.Font.Un.Porno.MULTi.720p.BluRay.DTS.x264-Cris01 23967″ style= »display:inline; »>

Qualité : BLURAY 720p
Format : MKV
Sous-titre : Français
Découpé avec : Winrar
Nombre de fichiers : 8 Fichiers
Taille des fichiers : 1000 Mo 326 Mo
Taille totale : 7326 Mo

[Liens Interchangeables]

1fichier.com
Télécharger

Uptobox.com
Télécharger

Free
Télécharger

Uploaded.net
Télécharger

Rapidgator.net
Upload en cour…

TurboBit.net
Télécharger

[1 Lien Premium 7 GB]

1fichier.com
Télécharger

Uptobox.com
Télécharger

Free
Upload en cour…

Uploaded.net ( 2 Premium Links)
Télécharger

TurboBit.net
Télécharger

NFO :

Afficher / Masquer le texte f94ffa4ea27ddb1cbfc5396f7e616ed7″ class= »text_spoiler » style= »display:none; »>File size : 7.45 GiB
Duration : 1h 41mn
Overall bit rate : 10.5 Mbps
Encoded date : UTC 2013-03-25 14:32:15
Writing application : mkvmerge v4.9.1 ('Ich will') built on Jul 11 2011 23:53:15
Writing library : libebml v1.2.1 libmatroska v1.1.1

Video
ID : 1
Format : AVC
Format/Info : Advanced Video Codec
Format profile : [email protected]
Format settings, CABAC : Yes
Format settings, ReFrames : 9 frames
Muxing mode : Header stripping
Codec ID : V_MPEG4/ISO/AVC
Duration : 1h 41mn
Bit rate : 7 500 Kbps
Width : 1 280 pixels
Height : 720 pixels
Display aspect ratio : 16:9
Frame rate : 23.976 fps
Color space : YUV
Chroma subsampling : 4:2:0
Bit depth : 8 bits
Scan type : Progressive
Bits/(Pixel*Frame) : 0.339
Stream size : 5.16 GiB (69%)
Title : Encode par cris01
Writing library : x264 core 129 r2245 bc13772
Encoding settings : cabac=1 / ref=9 / deblock=1:-3:-3 / analyse=0x3:0x113 / me=umh / subme=11 / psy=1 / psy_rd=0.90:0.02 / mixed_ref=1 / me_range=64 / chroma_me=1 / trellis=2 / 8x8dct=1 / cqm=0 / deadzone=21,11 / fast_pskip=0 / chroma_qp_offset=-3 / threads=6 / lookahead_threads=1 / sliced_threads=0 / nr=0 / decimate=1 / interlaced=0 / bluray_compat=0 / constrained_intra=0 / bframes=4 / b_pyramid=2 / b_adapt=2 / b_bias=0 / direct=1 / weightb=1 / open_gop=1 / weightp=2 / keyint=240 / keyint_min=23 / scenecut=40 / intra_refresh=0 / rc_lookahead=120 / rc=2pass / mbtree=1 / bitrate=7500 / ratetol=1.0 / qcomp=0.60 / qpmin=10 / qpmax=51 / qpstep=4 / cplxblur=20.0 / qblur=0.5 / vbv_maxrate=50000 / vbv_bufsize=50000 / nal_hrd=none / ip_ratio=1.40 / aq=1:1.00
Language : English

Audio #1
ID : 2
Format : DTS
Format/Info : Digital Theater Systems
Muxing mode : Header stripping
Codec ID : A_DTS
Duration : 1h 41mn
Bit rate mode : Constant
Bit rate : 1 510 Kbps
Channel(s) : 6 channels
Channel positions : Front: L C R, Side: L R, LFE
Sampling rate : 48.0 KHz
Bit depth : 16 bits
Compression mode : Lossy
Delay relative to video : 7ms
Stream size : 1.07 GiB (14%)
Title : VFF DTS 1510kbps
Language : French

Audio #2
ID : 3
Format : DTS
Format/Info : Digital Theater Systems
Muxing mode : Header stripping
Codec ID : A_DTS
Duration : 1h 41mn
Bit rate mode : Constant
Bit rate : 1 510 Kbps
Channel(s) : 6 channels
Channel positions : Front: L C R, Side: L R, LFE
Sampling rate : 48.0 KHz
Bit depth : 24 bits
Compression mode : Lossy
Delay relative to video : 9ms
Stream size : 1.07 GiB (14%)
Title : Anglais DTS 1510kbps
Language : English

Text #1
ID : 4
Format : UTF-8
Codec ID : S_TEXT/UTF8
Codec ID/Info : UTF-8 Plain Text
Title : Complets FR
Language : French

Text #2
ID : 5
Format : UTF-8
Codec ID : S_TEXT/UTF8
Codec ID/Info : UTF-8 Plain Text
Title : Forced FR
Language : French