Telecharger Zero Theorem [BLURAY 720p] French

BLURAY 720p | FRENCH

Zero Theorem

Zero Theorem

Zero Theorem

Origine du film : Américain, Britannique, Roumain
Réalisateur : Terry Gilliam
Acteurs : Christoph Waltz, David Thewlis, Mélanie Thierry
Genre : Science fiction, Drame
Durée : 1h46min
Date de sortie : 25 juin 2014
Année de production : 2013
Titre Original : The Zero Theorem
Distribué par : Wild Side Films / Le Pacte
Note presse : Zero Theorem 2,4/5
Note spectateurs : Zero Theorem 2,9/5 (452)
Bande annonce :

2a2071dbb3d83ab50bde90c545e8c4c1

19545770″>Cliquez-ici pour voir la bande annonce 2a2071dbb3d83ab50bde90c545e8c4c1″> 19545770

2a2071dbb3d83ab50bde90c545e8c4c1

Zero Theorem

Londres, dans un avenir proche. Les avancées technologiques ont placé le monde sous la surveillance d’une autorité invisible et toute-puissante : Management. Qohen Leth, génie de l’informatique, vit en reclus dans une chapelle abandonnée où il attend désespérément l’appel téléphonique qui lui apportera les réponses à toutes les questions qu’il se pose. Management le fait travailler sur un projet secret visant à décrypter le but de l’Existence – ou son absence de finalité – une bonne fois pour toutes. La solitude de Qohen est interrompue par les visites des émissaires de Management : Bob, le fils prodige de Management et Bainsley, une jeune femme mystérieuse qui tente de le séduire. Malgré toute sa science, ce n’est que lorsqu’il aura éprouvé la force du sentiment amoureux et du désir que Qohen pourra enfin comprendre le sens de la vie…
55494″ style= »display:inline; »>

Zero Theorem

Qualité : BLURAY 720p
Format : MKV
Langue : Français
Sous-titre : Français
Découpé avec : Winrar
Nombre de fichiers : 5 Fichiers
Taille des fichiers : 1000 Mo + 474 Mo

Zero Theorem

[5 Liens Interchangeables : 4 x 1000 Mo + 1 x 474 Mo]

The Zero Theorem 2013 FRENCH 720p BluRay x264-LOST ( 4474 Mo)

Uptobox
Télécharger

Uplea
Télécharger

1fichier
Télécharger

Uploaded
Télécharger

Rapidgator
Télécharger

TurboBit
Télécharger

[1 Lien PREMIUM : 1 x 4.36 GB]

Uptobox
Télécharger

Uplea
Télécharger

1fichier
Télécharger

Uploaded
Télécharger

Rapidgator
Télécharger

TurboBit
Télécharger

NFO :

Afficher / Masquer le texte 9ec718adfc99b5e08bcd1d5f7c836fc9″ class= »text_spoiler » style= »display:none; »>Format : Matroska
Format version : Version 2
File size : 4.37 GiB
Duration : 1h 46mn
Overall bit rate : 5 867 Kbps
Writing application : mkvmerge v4.1.1 (‘Bouncin’ Back’) built on Jul 3 2010 22:54:08
Writing library : libebml v1.0.0 + libmatroska v1.0

Video
ID : 1
Format : AVC
Format/Info : Advanced Video Codec
Format profile : [email protected]
Format settings, CABAC : Yes
Format settings, ReFrames : 5 frames
Codec ID : V_MPEG4/ISO/AVC
Duration : 1h 46mn
Bit rate : 5 419 Kbps
Width : 1 280 pixels
Height : 688 pixels
Display aspect ratio : 1.85:1
Frame rate : 23.976 fps
Color space : YUV
Chroma subsampling : 4:2:0
Bit depth : 8 bits
Scan type : Progressive
Bits/(Pixel*Frame) : 0.257
Stream size : 3.95 GiB (90%)
Writing library : x264 core 142 r2431 ac76440
Encoding settings : cabac=1 / ref=5 / deblock=1:0:0 / analyse=0x3:0x113 / me=umh / subme=8 / psy=1 / psy_rd=1.00:0.00 / mixed_ref=1 / me_range=16 / chroma_me=1 / trellis=1 / 8x8dct=1 / cqm=0 / deadzone=21,11 / fast_pskip=1 / chroma_qp_offset=-2 / threads=12 / lookahead_threads=2 / sliced_threads=0 / nr=0 / decimate=1 / interlaced=0 / bluray_compat=0 / constrained_intra=0 / bframes=3 / b_pyramid=2 / b_adapt=2 / b_bias=0 / direct=3 / weightb=1 / open_gop=0 / weightp=2 / keyint=240 / keyint_min=24 / scenecut=40 / intra_refresh=0 / rc_lookahead=50 / rc=2pass / mbtree=1 / bitrate=5419 / ratetol=1.0 / qcomp=0.60 / qpmin=0 / qpmax=69 / qpstep=4 / cplxblur=20.0 / qblur=0.5 / ip_ratio=1.40 / aq=1:1.00
Language : English
Default : Yes
Forced : No

Audio
ID : 2
Format : AC-3
Format/Info : Audio Coding 3
Mode extension : CM (complete main)
Format settings, Endianness : Big
Codec ID : A_AC3
Duration : 1h 46mn
Bit rate mode : Constant
Bit rate : 448 Kbps
Channel(s) : 6 channels
Channel positions : Front: L C R, Side: L R, LFE
Sampling rate : 48.0 KHz
Bit depth : 16 bits
Compression mode : Lossy
Stream size : 342 MiB (8%)
Title : French AC3 448kbps
Language : French
Default : Yes
Forced : No

Text
ID : 3
Format : UTF-8
Codec ID : S_TEXT/UTF8
Codec ID/Info : UTF-8 Plain Text
Title : Forced
Language : French
Default : Yes
Forced : Yes