Telecharger Zombies Of Mass Destruction [BLURAY 720p] French

(TRUEFRENCH = Vraie voix française)

BLURAY 720p | TRUEFRENCH | DTS

Zombies Of Mass Destruction

Zombies Of Mass Destruction

Zombies Of Mass Destruction

Origine du film : Américain
Réalisateur : Kevin Hamedani
Acteurs : Russell Hodgkinson, Janette Armand, Doug Fahl
Genre : Comédie
Année de production : 2009
Note spectateurs : Zombies Of Mass Destruction

; »>2,2/5 (116)

Zombies Of Mass Destruction

La vie s’écoule paisiblement sur la petite île de Port Gamble… Jusqu’à une attaque de zombies. Un petit groupe de rebelles se forme pour tenter de les repousser et de survivre. Et cette fois-ci les stéréotypes sont à l’honneur (et à la parodie). 44526″ style= »display:inline; »>

Qualité : BLURAY 720p
Format : MKV
Langue : Français
Sous-titre : Français
Découpé avec : Winrar
Nombre de fichiers : 5 Fichiers
Taille des fichiers : 1000 Mo 468 Mo

[Liens Interchangeables]

Zombies Of Mass Destruction 2009 FESTiVAL FRENCH 720p BluRay x264-AiRLiNE ( 4468 Mo)

1fichier
Télécharger

Uptobox
Télécharger

Uploaded
Télécharger

Rapidgator
Télécharger

TurboBit
Télécharger

[ 1 Lien Premium – 4,4 Go ]

1fichier
Télécharger

Uptobox
Télécharger

Uploaded
Télécharger

TurboBit
Télécharger

NFO :

Afficher / Masquer le texte a4fdebe9cf1be9032174ac5214ca6a01″ class= »text_spoiler » style= »display:none; »>****************************** Titre *******************************
=============================================================================

Zombies of Mass Destruction

=============================================================================

—————————————————————————–
***** General *****
—————————————————————————–

Format : Matroska
File size : 4.37 GiB
Duration : 1h 29mn
Overall bit rate : 7 006 Kbps
Encoded date : UTC 2014-01-21 10:59:50
Writing application : mkvmerge v6.7.0 ('Back to the Ground')
Writing library : libebml v1.3.0 libmatroska v1.4.1

—————————————————————————–
********** Video **********
—————————————————————————–

Format : AVC
Format/Info : Advanced Video Codec
Format profile : [email protected]
Format settings, CABAC : Yes
Format settings, ReFrames : 5 frames
Format settings, GOP : M=4, N=16
Codec ID : V_MPEG4/ISO/AVC
Duration : 1h 29mn
Bit rate : 5 500 Kbps
Width : 1 280 pixels
Height : 720 pixels
Display aspect ratio : 16:9
Frame rate : 23.976 fps
Color space : YUV
Chroma subsampling : 4:2:0
Bit depth : 8 bits
Scan type : Progressive
Bits/(Pixel*Frame) : 0.249
Stream size : 3.34 GiB (76%)
Title : AiRLiNE – Zombies of Mass Destruction – 720p
Writing library : x264 core 140 r2377 1ca7bb9

—————————————————————————–
*************** Audio1 ***************
—————————————————————————–

Format : DTS
Format/Info : Digital Theater Systems
Codec ID : A_DTS
Duration : 1h 29mn
Bit rate mode : Constant
Bit rate : 1 510 Kbps
Channel(s) : 6 channels
Channel positions : Front: L C R, Side: L R, LFE
Sampling rate : 48.0 KHz
Bit depth : 24 bits
Compression mode : Lossy
Stream size : 965 MiB (22%)
Title : FR-DTS 1510kbps
Language : French

—————————————————————————–
*************** Audio2 ***************
—————————————————————————–

None

—————————————————————————–
******************** Sous-Titres ********************
—————————————————————————–

ormat : UTF-8
Codec ID : S_TEXT/UTF8
Codec ID/Info : UTF-8 Plain Text
Title : FR forced / FR subs
Language : French

=============================================================================
****************************** Release Name ******************************

Zombies.Of.Mass.Destruction.2009.FESTiVAL.FRENCH.720p.BluRay.x264-AiRLiNE.mkv

*****************************************************************************

Jeux Gratuit
15354131_1854970838071206_1069261547_o.png